  0
SECTION
  2
HEADER
  9
$ACADVER
  1
AC1018
  9
$ACADMAINTVER
 70
    39
  9
$DWGCODEPAGE
  3
ANSI_1252
  9
$INSBASE
 10
0.0
 20
0.0
 30
0.0
  9
$EXTMIN
 10
-9.734237736532751
 20
1.396539481333159
 30
0.0
  9
$EXTMAX
 10
0.7157622634672478
 20
9.296539481333162
 30
1.0
  9
$LIMMIN
 10
0.84375
 20
1.125
  9
$LIMMAX
 10
22.625
 20
17.40625
  9
$ORTHOMODE
 70
     0
  9
$REGENMODE
 70
     1
  9
$FILLMODE
 70
     1
  9
$QTEXTMODE
 70
     0
  9
$MIRRTEXT
 70
     0
  9
$LTSCALE
 40
1.0
  9
$ATTMODE
 70
     1
  9
$TEXTSIZE
 40
0.15
  9
$TRACEWID
 40
0.05
  9
$TEXTSTYLE
  7
STANDARD
  9
$CLAYER
  8
TRIM
  9
$CELTYPE
  6
BYLAYER
  9
$CECOLOR
 62
   256
  9
$CELTSCALE
 40
1.0
  9
$DISPSILH
 70
     0
  9
$DIMSCALE
 40
1.0
  9
$DIMASZ
 40
0.1
  9
$DIMEXO
 40
0.1
  9
$DIMDLI
 40
0.375
  9
$DIMRND
 40
0.0
  9
$DIMDLE
 40
0.0
  9
$DIMEXE
 40
0.0625
  9
$DIMTP
 40
0.0
  9
$DIMTM
 40
0.0
  9
$DIMTXT
 40
0.1
  9
$DIMCEN
 40
0.05
  9
$DIMTSZ
 40
0.0
  9
$DIMTOL
 70
     0
  9
$DIMLIM
 70
     0
  9
$DIMTIH
 70
     0
  9
$DIMTOH
 70
     0
  9
$DIMSE1
 70
     0
  9
$DIMSE2
 70
     0
  9
$DIMTAD
 70
     0
  9
$DIMZIN
 70
     5
  9
$DIMBLK
  1

  9
$DIMASO
 70
     1
  9
$DIMSHO
 70
     1
  9
$DIMPOST
  1

  9
$DIMAPOST
  1
 mm
  9
$DIMALT
 70
     1
  9
$DIMALTD
 70
     1
  9
$DIMALTF
 40
25.4
  9
$DIMLFAC
 40
1.0
  9
$DIMTOFL
 70
     0
  9
$DIMTVP
 40
0.0
  9
$DIMTIX
 70
     0
  9
$DIMSOXD
 70
     0
  9
$DIMSAH
 70
     0
  9
$DIMBLK1
  1

  9
$DIMBLK2
  1

  9
$DIMSTYLE
  2
STANDARD
  9
$DIMCLRD
 70
     0
  9
$DIMCLRE
 70
     0
  9
$DIMCLRT
 70
     0
  9
$DIMTFAC
 40
1.0
  9
$DIMGAP
 40
0.05
  9
$DIMJUST
 70
     0
  9
$DIMSD1
 70
     0
  9
$DIMSD2
 70
     0
  9
$DIMTOLJ
 70
     1
  9
$DIMTZIN
 70
     0
  9
$DIMALTZ
 70
     5
  9
$DIMALTTZ
 70
     0
  9
$DIMUPT
 70
     0
  9
$DIMDEC
 70
     2
  9
$DIMTDEC
 70
     2
  9
$DIMALTU
 70
     2
  9
$DIMALTTD
 70
     1
  9
$DIMTXSTY
  7
STANDARD
  9
$DIMAUNIT
 70
     0
  9
$DIMADEC
 70
     0
  9
$DIMALTRND
 40
0.0
  9
$DIMAZIN
 70
     0
  9
$DIMDSEP
 70
    46
  9
$DIMATFIT
 70
     3
  9
$DIMFRAC
 70
     0
  9
$DIMLDRBLK
  1

  9
$DIMLUNIT
 70
     2
  9
$DIMLWD
 70
    -2
  9
$DIMLWE
 70
    -2
  9
$DIMTMOVE
 70
     0
  9
$LUNITS
 70
     2
  9
$LUPREC
 70
     4
  9
$SKETCHINC
 40
0.1
  9
$FILLETRAD
 40
0.0
  9
$AUNITS
 70
     0
  9
$AUPREC
 70
     0
  9
$MENU
  1
.
  9
$ELEVATION
 40
0.0
  9
$PELEVATION
 40
0.0
  9
$THICKNESS
 40
0.0
  9
$LIMCHECK
 70
     0
  9
$CHAMFERA
 40
0.5
  9
$CHAMFERB
 40
0.5
  9
$CHAMFERC
 40
1.0
  9
$CHAMFERD
 40
0.0
  9
$SKPOLY
 70
     1
  9
$TDCREATE
 40
2451012.698921203
  9
$TDUCREATE
 40
2451012.907254537
  9
$TDUPDATE
 40
2453299.560558183
  9
$TDUUPDATE
 40
2453299.768891516
  9
$TDINDWG
 40
0.5753303588
  9
$TDUSRTIMER
 40
0.5753303588
  9
$USRTIMER
 70
     1
  9
$ANGBASE
 50
0.0
  9
$ANGDIR
 70
     0
  9
$PDMODE
 70
     0
  9
$PDSIZE
 40
0.0
  9
$PLINEWID
 40
0.0
  9
$SPLFRAME
 70
     0
  9
$SPLINETYPE
 70
     6
  9
$SPLINESEGS
 70
     8
  9
$HANDSEED
  5
15D4
  9
$SURFTAB1
 70
     6
  9
$SURFTAB2
 70
     6
  9
$SURFTYPE
 70
     6
  9
$SURFU
 70
     6
  9
$SURFV
 70
     6
  9
$UCSBASE
  2

  9
$UCSNAME
  2

  9
$UCSORG
 10
0.0
 20
0.0
 30
0.0
  9
$UCSXDIR
 10
1.0
 20
0.0
 30
0.0
  9
$UCSYDIR
 10
0.0
 20
1.0
 30
0.0
  9
$UCSORTHOREF
  2

  9
$UCSORTHOVIEW
 70
     0
  9
$UCSORGTOP
 10
0.0
 20
0.0
 30
0.0
  9
$UCSORGBOTTOM
 10
0.0
 20
0.0
 30
0.0
  9
$UCSORGLEFT
 10
0.0
 20
0.0
 30
0.0
  9
$UCSORGRIGHT
 10
0.0
 20
0.0
 30
0.0
  9
$UCSORGFRONT
 10
0.0
 20
0.0
 30
0.0
  9
$UCSORGBACK
 10
0.0
 20
0.0
 30
0.0
  9
$PUCSBASE
  2

  9
$PUCSNAME
  2

  9
$PUCSORG
 10
0.0
 20
0.0
 30
0.0
  9
$PUCSXDIR
 10
1.0
 20
0.0
 30
0.0
  9
$PUCSYDIR
 10
0.0
 20
1.0
 30
0.0
  9
$PUCSORTHOREF
  2

  9
$PUCSORTHOVIEW
 70
     0
  9
$PUCSORGTOP
 10
0.0
 20
0.0
 30
0.0
  9
$PUCSORGBOTTOM
 10
0.0
 20
0.0
 30
0.0
  9
$PUCSORGLEFT
 10
0.0
 20
0.0
 30
0.0
  9
$PUCSORGRIGHT
 10
0.0
 20
0.0
 30
0.0
  9
$PUCSORGFRONT
 10
0.0
 20
0.0
 30
0.0
  9
$PUCSORGBACK
 10
0.0
 20
0.0
 30
0.0
  9
$USERI1
 70
     0
  9
$USERI2
 70
     0
  9
$USERI3
 70
     0
  9
$USERI4
 70
     0
  9
$USERI5
 70
     0
  9
$USERR1
 40
0.0
  9
$USERR2
 40
0.0
  9
$USERR3
 40
0.0
  9
$USERR4
 40
0.0
  9
$USERR5
 40
0.0
  9
$WORLDVIEW
 70
     1
  9
$SHADEDGE
 70
     3
  9
$SHADEDIF
 70
    70
  9
$TILEMODE
 70
     1
  9
$MAXACTVP
 70
    48
  9
$PINSBASE
 10
0.0
 20
0.0
 30
0.0
  9
$PLIMCHECK
 70
     0
  9
$PEXTMIN
 10
-0.0406493861701449
 20
-0.0373534947137273
 30
-0.0015258207003583
  9
$PEXTMAX
 10
10.58221438175791
 20
7.974426289292082
 30
0.0000000349246037
  9
$PLIMMIN
 10
-0.1979161059762549
 20
-0.2812499887361301
  9
$PLIMMAX
 10
10.80208365372785
 20
8.218749770967978
  9
$UNITMODE
 70
     0
  9
$VISRETAIN
 70
     1
  9
$PLINEGEN
 70
     0
  9
$PSLTSCALE
 70
     1
  9
$TREEDEPTH
 70
  3020
  9
$CMLSTYLE
  2
STANDARD
  9
$CMLJUST
 70
     0
  9
$CMLSCALE
 40
1.0
  9
$PROXYGRAPHICS
 70
     0
  9
$MEASUREMENT
 70
     0
  9
$CELWEIGHT
370
    -1
  9
$ENDCAPS
280
     0
  9
$JOINSTYLE
280
     0
  9
$LWDISPLAY
290
     0
  9
$INSUNITS
 70
     0
  9
$HYPERLINKBASE
  1

  9
$STYLESHEET
  1
monochrome.ctb
  9
$XEDIT
290
     1
  9
$CEPSNTYPE
380
     0
  9
$PSTYLEMODE
290
     1
  9
$FINGERPRINTGUID
  2
{23ACC1D8-4E77-11D3-9C30-006008208A1C}
  9
$VERSIONGUID
  2
{77F94901-AAC0-49B4-9214-FABDE99C0715}
  9
$EXTNAMES
290
     1
  9
$PSVPSCALE
 40
0.0
  9
$OLESTARTUP
290
     0
  9
$SORTENTS
280
   127
  9
$INDEXCTL
280
     0
  9
$HIDETEXT
280
     0
  9
$XCLIPFRAME
290
     0
  9
$HALOGAP
280
     0
  9
$OBSCOLOR
 70
   257
  9
$OBSLTYPE
280
     0
  9
$INTERSECTIONDISPLAY
280
     0
  9
$INTERSECTIONCOLOR
 70
   257
  9
$DIMASSOC
280
     1
  9
$PROJECTNAME
  1

  0
ENDSEC
  0
SECTION
  2
CLASSES
  0
CLASS
  1
ACDBDICTIONARYWDFLT
  2
AcDbDictionaryWithDefault
  3
ObjectDBX Classes
 90
        0
 91
        1
280
     0
281
     0
  0
CLASS
  1
PLOTSETTINGS
  2
AcDbPlotSettings
  3
ObjectDBX Classes
 90
        0
 91
        1
280
     0
281
     0
  0
CLASS
  1
TABLESTYLE
  2
AcDbTableStyle
  3
ObjectDBX Classes
 90
     2047
 91
        1
280
     0
281
     0
  0
CLASS
  1
DICTIONARYVAR
  2
AcDbDictionaryVar
  3
ObjectDBX Classes
 90
        0
 91
        1
280
     0
281
     0
  0
CLASS
  1
SORTENTSTABLE
  2
AcDbSortentsTable
  3
ObjectDBX Classes
 90
        0
 91
        1
280
     0
281
     0
  0
ENDSEC
  0
SECTION
  2
TABLES
  0
TABLE
  2
VPORT
  5
8
330
0
100
AcDbSymbolTable
 70
     3
  0
VPORT
  5
15D3
330
8
100
AcDbSymbolTableRecord
100
AcDbViewportTableRecord
  2
*Active
 70
     0
 10
0.0
 20
0.0
 11
1.0
 21
1.0
 12
-4.377596910499436
 22
5.346539481333161
 13
0.0
 23
0.0
 14
0.03125
 24
0.03125
 15
0.25
 25
0.25
 16
0.0
 26
0.0
 36
1.0
 17
0.0
 27
0.0
 37
0.0
 40
7.964330429637673
 41
1.551499348109517
 42
50.0
 43
0.0
 44
0.0
 50
0.0
 51
0.0
 71
     0
 72
 10000
 73
     1
 74
     0
 75
     0
 76
     0
 77
     0
 78
     0
281
     0
 65
     1
110
0.0
120
0.0
130
0.0
111
1.0
121
0.0
131
0.0
112
0.0
122
1.0
132
0.0
 79
     0
146
0.0
  0
ENDTAB
  0
TABLE
  2
LTYPE
  5
5
330
0
100
AcDbSymbolTable
 70
     5
  0
LTYPE
  5
13
330
5
100
AcDbSymbolTableRecord
100
AcDbLinetypeTableRecord
  2
BYBLOCK
 70
     0
  3

 72
    65
 73
     0
 40
0.0
  0
LTYPE
  5
14
330
5
100
AcDbSymbolTableRecord
100
AcDbLinetypeTableRecord
  2
BYLAYER
 70
     0
  3

 72
    65
 73
     0
 40
0.0
  0
LTYPE
  5
15
330
5
100
AcDbSymbolTableRecord
100
AcDbLinetypeTableRecord
  2
CONTINUOUS
 70
     0
  3
Solid line
 72
    65
 73
     0
 40
0.0
  0
LTYPE
  5
53
330
5
100
AcDbSymbolTableRecord
100
AcDbLinetypeTableRecord
  2
CENTER2
 70
     0
  3
Center (.5x) ___ _ ___ _ ___ _ ___ _ ___ _ ___
 72
    65
 73
     4
 40
1.125
 49
0.75
 74
     0
 49
-0.125
 74
     0
 49
0.125
 74
     0
 49
-0.125
 74
     0
  0
LTYPE
  5
11A7
330
5
100
AcDbSymbolTableRecord
100
AcDbLinetypeTableRecord
  2
CENTER
 70
     0
  3
Center ____ _ ____ _ ____ _ ____ _ ____ _ ____
 72
    65
 73
     4
 40
2.0
 49
1.25
 74
     0
 49
-0.25
 74
     0
 49
0.25
 74
     0
 49
-0.25
 74
     0
  0
LTYPE
  5
11A8
330
5
100
AcDbSymbolTableRecord
100
AcDbLinetypeTableRecord
  2
HIDDEN
 70
     0
  3
Hidden __ __ __ __ __ __ __ __ __ __ __ __ __ _
 72
    65
 73
     2
 40
0.375
 49
0.25
 74
     0
 49
-0.125
 74
     0
  0
LTYPE
  5
11A9
330
5
100
AcDbSymbolTableRecord
100
AcDbLinetypeTableRecord
  2
PHANTOM
 70
     0
  3
Phantom ______  __  __  ______  __  __  ______
 72
    65
 73
     6
 40
2.5
 49
1.25
 74
     0
 49
-0.25
 74
     0
 49
0.25
 74
     0
 49
-0.25
 74
     0
 49
0.25
 74
     0
 49
-0.25
 74
     0
  0
ENDTAB
  0
TABLE
  2
LAYER
  5
2
330
0
100
AcDbSymbolTable
 70
    11
  0
LAYER
  5
F
330
2
100
AcDbSymbolTableRecord
100
AcDbLayerTableRecord
  2
0
 70
     0
 62
     7
  6
CONTINUOUS
370
    -3
390
1046
  0
LAYER
  5
4C
330
2
100
AcDbSymbolTableRecord
100
AcDbLayerTableRecord
  2
PART
 70
     0
 62
     1
  6
CONTINUOUS
370
    -3
390
1046
  0
LAYER
  5
56
330
2
100
AcDbSymbolTableRecord
100
AcDbLayerTableRecord
  2
DIM
 70
     0
 62
     2
  6
CONTINUOUS
370
    -3
390
1046
  0
LAYER
  5
57
330
2
100
AcDbSymbolTableRecord
100
AcDbLayerTableRecord
  2
CENTER
 70
     0
 62
     5
  6
CENTER2
370
    -3
390
1046
  0
LAYER
  5
FB
330
2
100
AcDbSymbolTableRecord
100
AcDbLayerTableRecord
  2
TRIM
 70
     0
 62
     1
  6
CONTINUOUS
370
    -3
390
1046
  0
LAYER
  5
FC
330
2
100
AcDbSymbolTableRecord
100
AcDbLayerTableRecord
  2
BORDER
 70
     0
 62
     5
  6
CONTINUOUS
370
    -3
390
1046
  0
LAYER
  5
525
330
2
100
AcDbSymbolTableRecord
100
AcDbLayerTableRecord
  2
DEFPOINTS
 70
     0
 62
     7
  6
CONTINUOUS
290
     0
370
    -3
390
1046
  0
LAYER
  5
1065
330
2
100
AcDbSymbolTableRecord
100
AcDbLayerTableRecord
  2
NOTES
 70
     0
 62
     3
  6
CONTINUOUS
370
    -3
390
1046
  0
LAYER
  5
11AA
330
2
100
AcDbSymbolTableRecord
100
AcDbLayerTableRecord
  2
HIDDEN
 70
     0
 62
     3
  6
HIDDEN
370
    -3
390
1046
  0
LAYER
  5
11AB
330
2
100
AcDbSymbolTableRecord
100
AcDbLayerTableRecord
  2
PHANTOM
 70
     0
 62
     6
  6
PHANTOM
370
    -3
390
1046
  0
LAYER
  5
11AC
330
2
100
AcDbSymbolTableRecord
100
AcDbLayerTableRecord
  2
SOLID
 70
     0
 62
     5
  6
CONTINUOUS
370
    -3
390
1046
  0
ENDTAB
  0
TABLE
  2
STYLE
  5
3
330
0
100
AcDbSymbolTable
 70
     5
  0
STYLE
  5
10
330
3
100
AcDbSymbolTableRecord
100
AcDbTextStyleTableRecord
  2
STANDARD
 70
     0
 40
0.0
 41
1.0
 50
0.0
 71
     0
 42
0.15
  3
simplex.shx
  4

  0
STYLE
  5
FD
330
3
100
AcDbSymbolTableRecord
100
AcDbTextStyleTableRecord
  2
SIMPLEX
 70
     0
 40
0.0
 41
1.0
 50
0.0
 71
     0
 42
0.2
  3
SIMPLEX.shx
  4

  0
STYLE
  5
FE
330
3
100
AcDbSymbolTableRecord
100
AcDbTextStyleTableRecord
  2
ROMAND
 70
     0
 40
0.0
 41
1.0
 50
0.0
 71
     0
 42
0.25
  3
romand.shx
  4

  0
STYLE
  5
FF
330
3
100
AcDbSymbolTableRecord
100
AcDbTextStyleTableRecord
  2
SCRIPT
 70
     0
 40
0.0
 41
1.0
 50
0.0
 71
     0
 42
0.1
  3
scripts.shx
  4

  0
STYLE
  5
11AD
330
3
100
AcDbSymbolTableRecord
100
AcDbTextStyleTableRecord
  2

 70
     1
 40
0.0
 41
1.0
 50
0.0
 71
     0
 42
0.2
  3
ltypeshp.shx
  4

  0
ENDTAB
  0
TABLE
  2
VIEW
  5
6
330
0
100
AcDbSymbolTable
 70
     4
  0
VIEW
  5
7AD
330
6
100
AcDbSymbolTableRecord
100
AcDbViewTableRecord
  2
1
 70
     0
 40
16.33541469615383
 10
11.75421375095799
 20
9.240047251467103
 41
25.57674746935234
 11
0.0
 21
0.0
 31
1.0
 12
0.0
 22
0.0
 32
0.0
 42
50.0
 43
0.0
 44
0.0
 50
0.0
 71
     0
281
     0
 72
     0
  0
VIEW
  5
810
330
6
100
AcDbSymbolTableRecord
100
AcDbViewTableRecord
  2
C
 70
     0
 40
3.8125
 10
0.203125
 20
0.28125
 41
5.969321963394342
 11
0.0
 21
0.0
 31
1.0
 12
0.0
 22
0.0
 32
0.0
 42
50.0
 43
0.0
 44
0.0
 50
0.0
 71
     0
281
     0
 72
     0
  0
VIEW
  5
1039
330
6
100
AcDbSymbolTableRecord
100
AcDbViewTableRecord
  2
P
 70
     0
 40
8.502965779408981
 10
-4.507119701472262
 20
5.446194539760256
 41
13.31329583764368
 11
0.0
 21
0.0
 31
1.0
 12
0.0
 22
0.0
 32
0.0
 42
50.0
 43
0.0
 44
0.0
 50
0.0
 71
     0
281
     0
 72
     0
  0
VIEW
  5
103A
330
6
100
AcDbSymbolTableRecord
100
AcDbViewTableRecord
  2
A
 70
     0
 40
20.92285713012032
 10
6.216305259447096
 20
9.261277475112763
 41
32.75941524033814
 11
0.0
 21
0.0
 31
1.0
 12
0.0
 22
0.0
 32
0.0
 42
50.0
 43
0.0
 44
0.0
 50
0.0
 71
     0
281
     0
 72
     0
  0
ENDTAB
  0
TABLE
  2
UCS
  5
7
330
0
100
AcDbSymbolTable
 70
     0
  0
ENDTAB
  0
TABLE
  2
APPID
  5
9
330
0
100
AcDbSymbolTable
 70
     3
  0
APPID
  5
11
330
9
100
AcDbSymbolTableRecord
100
AcDbRegAppTableRecord
  2
ACAD
 70
     0
  0
APPID
  5
12CB
330
9
100
AcDbSymbolTableRecord
100
AcDbRegAppTableRecord
  2
ACAD_PSEXT
 70
     0
  0
APPID
  5
15D0
330
9
100
AcDbSymbolTableRecord
100
AcDbRegAppTableRecord
  2
DCO15
 70
     0
  0
ENDTAB
  0
TABLE
  2
DIMSTYLE
  5
A
330
0
100
AcDbSymbolTable
 70
     2
100
AcDbDimStyleTable
 71
     1
340
1D
  0
DIMSTYLE
105
1D
102
{ACAD_REACTORS
330
14FE
330
14FF
330
1500
102
}
330
A
100
AcDbSymbolTableRecord
100
AcDbDimStyleTableRecord
  2
STANDARD
 70
     0
  4
 mm
 41
0.1
 42
0.1
 43
0.375
 44
0.0625
 73
     0
 74
     0
 78
     5
140
0.1
141
0.05
147
0.05
170
     1
171
     1
271
     2
272
     2
274
     1
285
     5
340
10
  0
DIMSTYLE
105
1054
330
A
100
AcDbSymbolTableRecord
100
AcDbDimStyleTableRecord
  2
STDANG
 70
     0
 41
0.1
 43
0.375
 44
0.0625
 73
     0
 74
     0
 78
     5
140
0.1
141
0.05
147
0.075
271
     3
272
     2
284
     5
340
10
  0
ENDTAB
  0
TABLE
  2
BLOCK_RECORD
  5
1
330
0
100
AcDbSymbolTable
 70
    25
  0
BLOCK_RECORD
  5
19
102
{ACAD_XDICTIONARY
360
1592
102
}
330
1
100
AcDbSymbolTableRecord
100
AcDbBlockTableRecord
  2
*MODEL_SPACE
340
1049
  0
BLOCK_RECORD
  5
124A
330
1
100
AcDbSymbolTableRecord
100
AcDbBlockTableRecord
  2
*Paper_Space
340
124D
  0
BLOCK_RECORD
  5
64
330
1
100
AcDbSymbolTableRecord
100
AcDbBlockTableRecord
  2
TFT_A
340
0
  0
BLOCK_RECORD
  5
515
330
1
100
AcDbSymbolTableRecord
100
AcDbBlockTableRecord
  2
A$C4F0D77C9
340
0
102
{BLKREFS
331
1452
102
}
  0
BLOCK_RECORD
  5
EBB
330
1
100
AcDbSymbolTableRecord
100
AcDbBlockTableRecord
  2
TFT_A2
340
0
  0
BLOCK_RECORD
  5
1055
330
1
100
AcDbSymbolTableRecord
100
AcDbBlockTableRecord
  2
rvsn_blk
340
0
102
{BLKREFS
331
156A
102
}
  0
BLOCK_RECORD
  5
1066
330
1
100
AcDbSymbolTableRecord
100
AcDbBlockTableRecord
  2
rvsn_sym
340
0
102
{BLKREFS
331
14F5
331
14F8
331
14FB
331
159C
102
}
  0
BLOCK_RECORD
  5
1082
330
1
100
AcDbSymbolTableRecord
100
AcDbBlockTableRecord
  2
A$C435B465C
340
0
  0
BLOCK_RECORD
  5
10F9
330
1
100
AcDbSymbolTableRecord
100
AcDbBlockTableRecord
  2
A$C4FB65283
340
0
102
{BLKREFS
331
11AF
331
110A
102
}
  0
BLOCK_RECORD
  5
10FD
330
1
100
AcDbSymbolTableRecord
100
AcDbBlockTableRecord
  2
A$C2BBE0097
340
0
  0
BLOCK_RECORD
  5
1101
330
1
100
AcDbSymbolTableRecord
100
AcDbBlockTableRecord
  2
A$C10236829
340
0
  0
BLOCK_RECORD
  5
1105
330
1
100
AcDbSymbolTableRecord
100
AcDbBlockTableRecord
  2
A$C794932C0
340
0
  0
BLOCK_RECORD
  5
1109
330
1
100
AcDbSymbolTableRecord
100
AcDbBlockTableRecord
  2
TEST
340
0
  0
BLOCK_RECORD
  5
1187
330
1
100
AcDbSymbolTableRecord
100
AcDbBlockTableRecord
  2
A$C56887695
340
0
  0
BLOCK_RECORD
  5
118B
330
1
100
AcDbSymbolTableRecord
100
AcDbBlockTableRecord
  2
A$C406F4052
340
0
  0
BLOCK_RECORD
  5
118F
330
1
100
AcDbSymbolTableRecord
100
AcDbBlockTableRecord
  2
A$C217D2A32
340
0
  0
BLOCK_RECORD
  5
1193
330
1
100
AcDbSymbolTableRecord
100
AcDbBlockTableRecord
  2
A$C26835032
340
0
  0
BLOCK_RECORD
  5
1197
330
1
100
AcDbSymbolTableRecord
100
AcDbBlockTableRecord
  2
A$C11730435
340
0
  0
BLOCK_RECORD
  5
119B
330
1
100
AcDbSymbolTableRecord
100
AcDbBlockTableRecord
  2
A$C740A492C
340
0
  0
BLOCK_RECORD
  5
119F
330
1
100
AcDbSymbolTableRecord
100
AcDbBlockTableRecord
  2
A$C251463E3
340
0
  0
BLOCK_RECORD
  5
11A3
330
1
100
AcDbSymbolTableRecord
100
AcDbBlockTableRecord
  2
A$C46507260
340
0
  0
BLOCK_RECORD
  5
11AE
330
1
100
AcDbSymbolTableRecord
100
AcDbBlockTableRecord
  2
tft_aprlist
340
0
102
{BLKREFS
331
1234
102
}
  0
BLOCK_RECORD
  5
16
330
1
100
AcDbSymbolTableRecord
100
AcDbBlockTableRecord
  2
*PAPER_SPACE20
340
104A
  0
BLOCK_RECORD
  5
1501
330
1
100
AcDbSymbolTableRecord
100
AcDbBlockTableRecord
  2
*D21
340
0
  0
BLOCK_RECORD
  5
150E
330
1
100
AcDbSymbolTableRecord
100
AcDbBlockTableRecord
  2
*D22
340
0
  0
BLOCK_RECORD
  5
151B
330
1
100
AcDbSymbolTableRecord
100
AcDbBlockTableRecord
  2
*D23
340
0
  0
BLOCK_RECORD
  5
156F
330
1
100
AcDbSymbolTableRecord
100
AcDbBlockTableRecord
  2
TB_ADDON
340
0
  0
ENDTAB
  0
ENDSEC
  0
SECTION
  2
BLOCKS
  0
BLOCK
  5
1A
330
19
100
AcDbEntity
  8
0
100
AcDbBlockBegin
  2
*MODEL_SPACE
 70
     0
 10
0.0
 20
0.0
 30
0.0
  3
*MODEL_SPACE
  1

  0
ENDBLK
  5
1B
330
19
100
AcDbEntity
  8
0
100
AcDbBlockEnd
  0
BLOCK
  5
124B
330
124A
100
AcDbEntity
 67
     1
  8
0
100
AcDbBlockBegin
  2
*Paper_Space
 70
     0
 10
0.0
 20
0.0
 30
0.0
  3
*Paper_Space
  1

  0
ENDBLK
  5
124C
330
124A
100
AcDbEntity
 67
     1
  8
0
100
AcDbBlockEnd
  0
BLOCK
  5
F9
330
64
100
AcDbEntity
  8
0
100
AcDbBlockBegin
  2
TFT_A
 70
     2
 10
0.0
 20
0.0
 30
0.0
  3
TFT_A
  1

  0
LINE
  5
65
330
64
100
AcDbEntity
  8
TRIM
100
AcDbLine
 10
0.0000000000000004
 20
3.914999999999999
 30
0.0
 11
10.45
 21
3.914999999999999
 31
0.0
  0
LINE
  5
66
330
64
100
AcDbEntity
  8
TRIM
100
AcDbLine
 10
2.941094565832298
 20
-3.954999999999999
 30
0.0
 11
7.996999999999999
 21
-3.954999999999999
 31
0.0
  0
LINE
  5
67
330
64
100
AcDbEntity
  8
TRIM
100
AcDbLine
 10
2.94109456583225
 20
-3.572014178481999
 30
0.0
 11
7.996999999999999
 21
-3.572014178481999
 31
0.0
  0
LINE
  5
68
330
64
100
AcDbEntity
  8
TRIM
100
AcDbLine
 10
0.0
 20
-3.985
 30
0.0
 11
10.45
 21
-3.984999999999999
 31
0.0
  0
LINE
  5
69
330
64
100
AcDbEntity
  8
TRIM
100
AcDbLine
 10
10.42
 20
3.884999999999998
 30
0.0
 11
0.0299999999999994
 21
3.884999999999998
 31
0.0
  0
LINE
  5
6A
330
64
100
AcDbEntity
  8
TRIM
100
AcDbLine
 10
0.0300000000000491
 20
-3.542014178481998
 30
0.0
 11
7.996999999999999
 21
-3.542014178481999
 31
0.0
  0
LINE
  5
6B
330
64
100
AcDbEntity
  8
TRIM
100
AcDbLine
 10
0.0
 20
3.914999999999999
 30
0.0
 11
0.0
 21
-3.985
 31
0.0
  0
LINE
  5
6C
330
64
100
AcDbEntity
  8
TRIM
100
AcDbLine
 10
0.0299999999999994
 20
3.884999999999998
 30
0.0
 11
0.0300000000000003
 21
-3.542014178481998
 31
0.0
  0
LINE
  5
6D
330
64
100
AcDbEntity
  8
TRIM
100
AcDbLine
 10
0.0299999999999994
 20
-3.954999999999999
 30
0.0
 11
2.019143811352865
 21
-3.954999999999999
 31
0.0
  0
LINE
  5
6E
330
64
100
AcDbEntity
  8
TRIM
100
AcDbLine
 10
0.0300000000000491
 20
-3.572014178481998
 30
0.0
 11
2.019143811352817
 21
-3.572014178481998
 31
0.0
  0
LINE
  5
6F
330
64
100
AcDbEntity
  8
TRIM
100
AcDbLine
 10
0.0300000000000003
 20
-3.572014178481998
 30
0.0
 11
0.0299999999999994
 21
-3.954999999999999
 31
0.0
  0
LINE
  5
70
330
64
100
AcDbEntity
  8
TRIM
100
AcDbLine
 10
2.049143811352816
 20
-3.572014178481998
 30
0.0
 11
2.91109456583225
 21
-3.572014178481999
 31
0.0
  0
LINE
  5
71
330
64
100
AcDbEntity
  8
TRIM
100
AcDbLine
 10
2.049143811352865
 20
-3.954999999999999
 30
0.0
 11
2.911094565832298
 21
-3.954999999999999
 31
0.0
  0
TEXT
  5
72
330
64
100
AcDbEntity
  8
TRIM
100
AcDbText
 10
2.246095856974888
 20
-3.720935955104524
 30
0.0
 40
0.1
  1
SHEET
  7
SIMPLEX
100
AcDbText
  0
LINE
  5
73
330
64
100
AcDbEntity
  8
TRIM
100
AcDbLine
 10
2.049143811352816
 20
-3.572014178481999
 30
0.0
 11
2.049143811352866
 21
-3.954999999999999
 31
0.0
  0
LINE
  5
74
330
64
100
AcDbEntity
  8
TRIM
100
AcDbLine
 10
2.019143811352817
 20
-3.572014178481999
 30
0.0
 11
2.019143811352866
 21
-3.954999999999999
 31
0.0
  0
LINE
  5
75
330
64
100
AcDbEntity
  8
TRIM
100
AcDbLine
 10
2.91109456583225
 20
-3.572014178481999
 30
0.0
 11
2.911094565832298
 21
-3.954999999999999
 31
0.0
  0
LINE
  5
76
330
64
100
AcDbEntity
  8
TRIM
100
AcDbLine
 10
2.94109456583225
 20
-3.572014178481999
 30
0.0
 11
2.941094565832298
 21
-3.954999999999999
 31
0.0
  0
LINE
  5
77
330
64
100
AcDbEntity
  8
TRIM
100
AcDbLine
 10
10.42
 20
-3.046589598078762
 30
0.0
 11
10.42
 21
0.08500322666539
 31
0.0
  0
LINE
  5
78
330
64
100
AcDbEntity
  8
TRIM
100
AcDbLine
 10
8.026999999999999
 20
-2.536589598078761
 30
0.0
 11
8.026999999999999
 21
0.08500322666539
 31
0.0
  0
LINE
  5
79
330
64
100
AcDbEntity
  8
TRIM
100
AcDbLine
 10
7.996999999999999
 20
-3.542014178482002
 30
0.0
 11
7.997000000000001
 21
0.1150032266653893
 31
0.0
  0
LINE
  5
7A
330
64
100
AcDbEntity
  8
TRIM
100
AcDbLine
 10
10.45
 20
-3.985000000000002
 30
0.0
 11
10.45
 21
3.914999999999997
 31
0.0
  0
ATTDEF
  5
7B
330
64
100
AcDbEntity
  8
DIM
100
AcDbText
 10
8.787905825537462
 20
-0.5029506278945242
 30
0.0
 40
0.08
  1

  7
SIMPLEX
100
AcDbAttributeDefinition
  3
MATERIAL_#
  2
MATERIAL_#
 70
     0
  0
TEXT
  5
7C
330
64
100
AcDbEntity
  8
TRIM
100
AcDbText
 10
8.059948898047702
 20
-0.5089144100643086
 30
0.0
 40
0.08
  1
TFT PART:
  7
SIMPLEX
100
AcDbText
  0
ATTDEF
  5
7D
330
64
100
AcDbEntity
  8
DIM
100
AcDbText
 10
8.787905825537462
 20
-0.295011116535842
 30
0.0
 40
0.08
  1

  7
SIMPLEX
100
AcDbAttributeDefinition
  3
MATERIAL_COMPOSITION
  2
MATERIAL_COMPOSITION
 70
     0
  0
ATTDEF
  5
7E
330
64
100
AcDbEntity
  8
DIM
100
AcDbText
 10
8.787905825537462
 20
-0.0801402951167898
 30
0.0
 40
0.08
  1

  7
SIMPLEX
100
AcDbAttributeDefinition
  3
MATERIAL_SIZE
  2
MATERIAL_SIZE
 70
     0
  0
LINE
  5
7F
330
64
100
AcDbEntity
  8
TRIM
100
AcDbLine
 10
10.42
 20
0.08500322666539
 30
0.0
 11
8.026999999999999
 21
0.08500322666539
 31
0.0
  0
LINE
  5
80
330
64
100
AcDbEntity
  8
TRIM
100
AcDbLine
 10
10.42
 20
0.1150032266653893
 30
0.0
 11
7.997000000000001
 21
0.1150032266653893
 31
0.0
  0
TEXT
  5
81
330
64
100
AcDbEntity
  8
TRIM
100
AcDbText
 10
8.37752131495778
 20
-0.0797965483336265
 30
0.0
 40
0.08
  1
SIZE:
  7
SIMPLEX
100
AcDbText
  0
TEXT
  5
82
330
64
100
AcDbEntity
  8
TRIM
100
AcDbText
 10
8.153815365993837
 20
-0.2956400638492607
 30
0.0
 40
0.08
  1
COMP/T:
  7
SIMPLEX
100
AcDbText
  0
TEXT
  5
83
330
64
100
AcDbEntity
  8
TRIM
100
AcDbText
 10
8.061498075730849
 20
-0.0797305486887403
 30
0.0
 40
0.125
  1
MTRL.
 41
0.4737542652005013
  7
SIMPLEX
 72
     5
 11
8.292735276602522
 21
-0.0797305486887403
 31
0.0
100
AcDbText
  0
LINE
  5
84
330
64
100
AcDbEntity
  8
TRIM
100
AcDbLine
 10
8.324861931327827
 20
0.0853855139692241
 30
0.0
 11
8.324861931327827
 21
-0.1070008486299878
 31
0.0
  0
LINE
  5
85
330
64
100
AcDbEntity
  8
TRIM
100
AcDbLine
 10
8.324861931327827
 20
-0.1070008486299878
 30
0.0
 11
8.029744986758162
 21
-0.1070008486299878
 31
0.0
  0
LINE
  5
86
330
64
100
AcDbEntity
  8
TRIM
100
AcDbLine
 10
10.42
 20
0.1150032266653893
 30
0.0
 11
10.42
 21
3.884999999999996
 31
0.0
  0
ATTDEF
  5
87
330
64
100
AcDbEntity
  8
DIM
100
AcDbText
 10
2.477072168477677
 20
-3.901492051641427
 30
0.0
 40
0.1
  1

  7
SIMPLEX
 72
     1
 11
2.477072168477677
 21
-3.901492051641427
 31
0.0
100
AcDbAttributeDefinition
  3
SHEET_#
  2
#_OF_#
 70
     0
  0
ATTDEF
  5
88
330
64
100
AcDbEntity
  8
DIM
100
AcDbText
 10
3.897972150850969
 20
-3.843205428489187
 30
0.0
 40
0.13
  1

  7
SIMPLEX
100
AcDbAttributeDefinition
  3
PART_DESCRIPTION
  2
PART_DESCRIPTION
 70
     0
  0
ATTDEF
  5
89
330
64
100
AcDbEntity
  8
DIM
100
AcDbText
 10
0.7153226045877175
 20
-3.844114383024713
 30
0.0
 40
0.13
  1

  7
SIMPLEX
100
AcDbAttributeDefinition
  3
PART_#
  2
PART_#
 70
     0
  0
TEXT
  5
8A
330
64
100
AcDbEntity
  8
TRIM
100
AcDbText
 10
0.1101805231206979
 20
-3.853119266055138
 30
0.0
 40
0.16
  1
ITEM:
 41
0.9
  7
SIMPLEX
100
AcDbText
  0
TEXT
  5
8B
330
64
100
AcDbEntity
  8
TRIM
100
AcDbText
 10
3.018641921597364
 20
-3.853119266055189
 30
0.0
 40
0.16
  1
DESCR:
 41
0.9
  7
SIMPLEX
100
AcDbText
  0
LINE
  5
8C
330
64
100
AcDbEntity
  8
TRIM
100
AcDbLine
 10
10.42
 20
-3.077839598078762
 30
0.0
 11
10.42
 21
-0.5484946318477096
 31
0.0
  0
LINE
  5
8D
330
64
100
AcDbEntity
  8
TRIM
100
AcDbLine
 10
8.026999999999999
 20
-2.567839598078761
 30
0.0
 11
8.026999999999999
 21
-0.5484946318477096
 31
0.0
  0
LINE
  5
8E
330
64
100
AcDbEntity
  8
TRIM
100
AcDbLine
 10
7.996999999999999
 20
-3.542014178482002
 30
0.0
 11
7.997000000000001
 21
-0.5184946318477102
 31
0.0
  0
ATTDEF
  5
8F
330
64
100
AcDbEntity
  8
DIM
100
AcDbText
 10
8.477862444579679
 20
-3.880427833455523
 30
0.0
 40
0.08
  1

  7
SIMPLEX
100
AcDbAttributeDefinition
  3
FILE_NAME
  2
FILE_NAME
 70
     0
  0
ATTDEF
  5
90
330
64
100
AcDbEntity
  8
DIM
100
AcDbText
 10
8.683865875782455
 20
-1.815356929333484
 30
0.0
 40
0.08
  1

  7
SIMPLEX
100
AcDbAttributeDefinition
  3
DRAWING_SCALE
  2
SCALE
 70
     0
  0
SOLID
  5
91
330
64
100
AcDbEntity
  8
TRIM
100
AcDbTrace
 10
8.814939381607677
 20
-2.740265208313116
 30
0.0
 11
9.140494166256125
 21
-2.653033066674477
 31
0.0
 12
8.832927304824286
 22
-2.725956968120363
 32
0.0
 13
9.158482089472734
 23
-2.638724826481723
 33
0.0
  0
SOLID
  5
92
330
64
100
AcDbEntity
  8
TRIM
100
AcDbTrace
 10
8.774996747130151
 20
-2.763618992556074
 30
0.0
 11
9.11651026863398
 21
-2.672110720264814
 31
0.0
 12
9.067854457181672
 22
-2.763618992556074
 32
0.0
 13
9.067854457181672
 23
-2.763618992556074
 33
0.0
  0
SOLID
  5
93
330
64
100
AcDbEntity
  8
TRIM
100
AcDbTrace
 10
8.743173320634886
 20
-2.98082189393731
 30
0.0
 11
8.925428195074514
 21
-2.763618992556074
 31
0.0
 12
8.833929604844234
 22
-2.956503820875365
 32
0.0
 13
8.936488287286005
 23
-2.763618992556074
 33
0.0
  0
SOLID
  5
94
330
64
100
AcDbEntity
  8
TRIM
100
AcDbTrace
 10
8.848446204610253
 20
-2.974753687975698
 30
0.0
 11
8.949337806056693
 21
-2.785004183004205
 31
0.0
 12
8.84222480471053
 22
-2.966932316361269
 32
0.0
 13
8.943830869440684
 23
-2.775839101383577
 33
0.0
  0
SOLID
  5
95
330
64
100
AcDbEntity
  8
TRIM
100
AcDbTrace
 10
8.899222087124552
 20
-2.775839101383577
 30
0.0
 11
8.708899504602705
 21
-3.002656722855799
 31
0.0
 12
8.879567506162082
 22
-2.785004183004205
 32
0.0
 13
8.683194142578569
 23
-3.019032844544667
 33
0.0
  0
SOLID
  5
96
330
64
100
AcDbEntity
  8
TRIM
100
AcDbTrace
 10
8.710826660633921
 20
-2.775839101383577
 30
0.0
 11
8.899222087124552
 21
-2.775839101383577
 31
0.0
 12
8.716333597249931
 22
-2.785004183004205
 32
0.0
 13
8.879567506162082
 23
-2.785004183004205
 33
0.0
  0
LINE
  5
97
330
64
100
AcDbEntity
  8
TRIM
 62
     2
100
AcDbLine
 10
10.41418891389197
 20
-2.886394029026662
 30
0.0
 11
9.212094456945999
 21
-2.886394029026662
 31
0.0
  0
LINE
  5
98
330
64
100
AcDbEntity
  8
TRIM
100
AcDbLine
 10
9.182094456945966
 20
-2.567839598078761
 30
0.0
 11
8.026999999999999
 21
-2.567839598078761
 31
0.0
  0
LINE
  5
99
330
64
100
AcDbEntity
  8
TRIM
100
AcDbLine
 10
9.182094456945959
 20
-2.387839598078761
 30
0.0
 11
8.026999999999999
 21
-2.387839598078761
 31
0.0
  0
LINE
  5
9A
330
64
100
AcDbEntity
  8
TRIM
100
AcDbLine
 10
9.182094456945952
 20
-2.207839598078761
 30
0.0
 11
8.026999999999999
 21
-2.207839598078761
 31
0.0
  0
LINE
  5
9B
330
64
100
AcDbEntity
  8
TRIM
100
AcDbLine
 10
9.182094456945947
 20
-2.027839598078761
 30
0.0
 11
8.026999999999999
 21
-2.027839598078761
 31
0.0
  0
LINE
  5
9C
330
64
100
AcDbEntity
  8
TRIM
100
AcDbLine
 10
9.182094456945941
 20
-1.847839598078761
 30
0.0
 11
8.026999999999999
 21
-1.847839598078761
 31
0.0
  0
LINE
  5
9D
330
64
100
AcDbEntity
  8
TRIM
100
AcDbLine
 10
9.18209445694598
 20
-2.567839598078761
 30
0.0
 11
8.026999999999999
 21
-2.567839598078761
 31
0.0
  0
LINE
  5
9E
330
64
100
AcDbEntity
  8
TRIM
100
AcDbLine
 10
9.182094456945998
 20
-3.077839598078762
 30
0.0
 11
8.026999999999999
 21
-3.077839598078762
 31
0.0
  0
LINE
  5
9F
330
64
100
AcDbEntity
  8
TRIM
100
AcDbLine
 10
8.026999999999999
 20
-3.909999999999999
 30
0.0
 11
10.42
 21
-3.91
 31
0.0
  0
LINE
  5
A0
330
64
100
AcDbEntity
  8
TRIM
100
AcDbLine
 10
10.42
 20
-1.46683405829009
 30
0.0
 11
8.026999999999999
 21
-1.46683405829009
 31
0.0
  0
LINE
  5
A1
330
64
100
AcDbEntity
  8
TRIM
100
AcDbLine
 10
10.42
 20
-1.667839598078761
 30
0.0
 11
8.026999999999999
 21
-1.667839598078761
 31
0.0
  0
LINE
  5
A2
330
64
100
AcDbEntity
  8
TRIM
100
AcDbLine
 10
8.026999999999999
 20
-0.8849426135495427
 30
0.0
 11
10.42099943010428
 21
-0.8849426135495427
 31
0.0
  0
TEXT
  5
A3
330
64
100
AcDbEntity
  8
TRIM
 62
     2
100
AcDbText
 10
8.124247898167478
 20
-1.141147357777224
 30
0.0
 40
0.085
  1
X.XXX  %%P.005
  7
SIMPLEX
100
AcDbText
  0
LINE
  5
A4
330
64
100
AcDbEntity
  8
TRIM
100
AcDbLine
 10
8.026999999999999
 20
-0.7121164314951956
 30
0.0
 11
10.42
 21
-0.7121164314951956
 31
0.0
  0
TEXT
  5
A5
330
64
100
AcDbEntity
  8
TRIM
 62
     2
100
AcDbText
 10
8.113788057094124
 20
-0.9984452402764492
 30
0.0
 40
0.085
  1
X.XXXX %%P.005
  7
SIMPLEX
100
AcDbText
  0
TEXT
  5
A6
330
64
100
AcDbEntity
  8
TRIM
100
AcDbText
 10
8.077925744842618
 20
-2.005952075092129
 30
0.0
 40
0.1
  1
PRINT DRAWN
  7
SIMPLEX
100
AcDbText
  0
TEXT
  5
A7
330
64
100
AcDbEntity
  8
TRIM
100
AcDbText
 10
9.277645855643239
 20
-2.851140473901025
 30
0.0
 40
0.07
  1
DESIGN ENGINEER
  7
SIMPLEX
100
AcDbText
  0
TEXT
  5
A8
330
64
100
AcDbEntity
  8
TRIM
100
AcDbText
 10
8.07756365306904
 20
-2.355609619544289
 30
0.0
 40
0.1
  1
PRINT APPROVED
 41
0.8652699386053429
  7
SIMPLEX
 72
     5
 11
9.185933241092074
 21
-2.355609619544289
 31
0.0
100
AcDbText
  0
LINE
  5
A9
330
64
100
AcDbEntity
  8
TRIM
100
AcDbLine
 10
8.026999999999999
 20
-3.759999999999999
 30
0.0
 11
10.42
 21
-3.759999999999999
 31
0.0
  0
LINE
  5
AA
330
64
100
AcDbEntity
  8
TRIM
100
AcDbLine
 10
8.026999999999999
 20
-3.729999999999999
 30
0.0
 11
10.42
 21
-3.729999999999999
 31
0.0
  0
TEXT
  5
AB
330
64
100
AcDbEntity
  8
TRIM
100
AcDbText
 10
8.294229539613001
 20
-3.246213262121685
 30
0.0
 40
0.1
  1
TASK FORCE TIPS, INC.
 51
10.0
  7
ROMAND
100
AcDbText
  0
TEXT
  5
AC
330
64
100
AcDbEntity
  8
TRIM
 62
     2
100
AcDbText
 10
8.329332859652945
 20
-3.388506794869928
 30
0.0
 40
0.09
  1
2800 E. EVANS AVE.
  7
SIMPLEX
100
AcDbText
  0
TEXT
  5
AD
330
64
100
AcDbEntity
  8
TRIM
 62
     2
100
AcDbText
 10
8.329332859652945
 20
-3.533224980134629
 30
0.0
 40
0.09
  1
VALPARAISO, IN 46383
  7
SIMPLEX
100
AcDbText
  0
TEXT
  5
AE
330
64
100
AcDbEntity
  8
TRIM
100
AcDbText
 10
8.329332859652945
 20
-3.683889060008822
 30
0.0
 40
0.09
  1
(219) 462-6161
  7
SIMPLEX
100
AcDbText
  0
LINE
  5
AF
330
64
100
AcDbEntity
  8
TRIM
100
AcDbLine
 10
8.026999999999999
 20
-0.5484946318477096
 30
0.0
 11
10.42
 21
-0.5484946318477096
 31
0.0
  0
LINE
  5
B0
330
64
100
AcDbEntity
  8
TRIM
100
AcDbLine
 10
10.42
 20
-3.107839598078762
 30
0.0
 11
8.026999999999999
 21
-3.107839598078761
 31
0.0
  0
TEXT
  5
B1
330
64
100
AcDbEntity
  8
TRIM
100
AcDbText
 10
8.034670626372317
 20
-1.618408047771838
 30
0.0
 40
0.1
  1
NOTE BREAK SHARP CORNERS .01 MIN.
 41
0.7771876393739456
  7
SIMPLEX
 72
     5
 11
10.38103711857746
 21
-1.618408047771838
 31
0.0
100
AcDbText
  0
TEXT
  5
B2
330
64
100
AcDbEntity
  8
TRIM
100
AcDbText
 10
8.018980864762285
 20
-0.853198329249135
 30
0.0
 40
0.085
  1
TOLERANCES: UNLESS SPECIFIED OTHERWISE
 41
0.8248258057433959
  7
SIMPLEX
 72
     5
 11
10.40606602400299
 21
-0.853198329249135
 31
0.0
100
AcDbText
  0
SOLID
  5
B3
330
64
100
AcDbEntity
  8
TRIM
100
AcDbTrace
 10
8.586830838169856
 20
-2.823724069304218
 30
0.0
 11
8.637264985901104
 21
-2.763618992556074
 31
0.0
 12
8.622180830428451
 22
-2.812789171092213
 32
0.0
 13
8.648325078112595
 23
-2.763618992556074
 33
0.0
  0
SOLID
  5
B4
330
64
100
AcDbEntity
  8
TRIM
100
AcDbTrace
 10
8.52197875383081
 20
-2.843784920687047
 30
0.0
 11
8.688198002427098
 21
-2.792367920338641
 31
0.0
 12
8.634274960171278
 22
-2.893782413001149
 32
0.0
 13
8.634274960171278
 23
-2.893782413001149
 33
0.0
  0
SOLID
  5
B5
330
64
100
AcDbEntity
  8
TRIM
100
AcDbTrace
 10
8.639714842774495
 20
-2.90958097923069
 30
0.0
 11
8.710826660633921
 21
-2.775839101383577
 31
0.0
 12
8.643794754726908
 22
-2.921429903902845
 32
0.0
 13
8.716333597249931
 23
-2.785004183004205
 33
0.0
  0
SOLID
  5
B6
330
64
100
AcDbEntity
  8
TRIM
100
AcDbTrace
 10
8.574496034295572
 20
-2.805154665813232
 30
0.0
 11
8.461289216838943
 21
-2.840173203207459
 31
0.0
 12
8.579782378813122
 22
-2.813112981595083
 32
0.0
 13
8.487299018406886
 23
-2.841721082127282
 33
0.0
  0
SOLID
  5
B7
330
64
100
AcDbEntity
  8
TRIM
100
AcDbTrace
 10
8.591404296988672
 20
-2.785004183004206
 30
0.0
 11
8.574496034295572
 21
-2.805154665813232
 31
0.0
 12
8.61105887795114
 22
-2.775839101383578
 32
0.0
 13
8.579782378813122
 23
-2.813112981595083
 33
0.0
  0
SOLID
  5
B8
330
64
100
AcDbEntity
  8
TRIM
100
AcDbTrace
 10
8.276549445574943
 20
-2.96693231636127
 30
0.0
 11
8.378155510305097
 21
-2.775839101383578
 31
0.0
 12
8.282770845474667
 22
-2.974753687975699
 32
0.0
 13
8.383662446921107
 23
-2.785004183004206
 33
0.0
  0
SOLID
  5
B9
330
64
100
AcDbEntity
  8
TRIM
100
AcDbTrace
 10
8.117518783442983
 20
-3.019032844544667
 30
0.0
 11
8.313892147026496
 21
-2.785004183004206
 31
0.0
 12
8.143224145467119
 22
-3.0026567228558
 32
0.0
 13
8.333546727988967
 23
-2.775839101383578
 33
0.0
  0
SOLID
  5
BA
330
64
100
AcDbEntity
  8
TRIM
100
AcDbTrace
 10
8.1774979614993
 20
-2.98082189393731
 30
0.0
 11
8.35975283593893
 21
-2.763618992556074
 31
0.0
 12
8.268254245708646
 22
-2.956503820875365
 32
0.0
 13
8.370812928150421
 23
-2.763618992556074
 33
0.0
  0
LINE
  5
BB
330
64
100
AcDbEntity
  8
TRIM
100
AcDbLine
 10
8.026999999999999
 20
-3.077839598078762
 30
0.0
 11
8.026999999999999
 21
-2.567839598078761
 31
0.0
  0
LINE
  5
BC
330
64
100
AcDbEntity
  8
TRIM
100
AcDbLine
 10
8.026999999999999
 20
-3.73
 30
0.0
 11
8.026999999999999
 21
-3.107839598078761
 31
0.0
  0
LINE
  5
BD
330
64
100
AcDbEntity
  8
TRIM
100
AcDbLine
 10
7.996999999999999
 20
-3.955000000000002
 30
0.0
 11
7.996999999999999
 21
-3.572014178482002
 31
0.0
  0
LINE
  5
BE
330
64
100
AcDbEntity
  8
TRIM
100
AcDbLine
 10
8.026999999999999
 20
-3.91
 30
0.0
 11
8.026999999999999
 21
-3.759999999999999
 31
0.0
  0
TEXT
  5
BF
330
64
100
AcDbEntity
  8
TRIM
100
AcDbText
 10
8.05476224518456
 20
-3.870518011028342
 30
0.0
 40
0.08
  1
FILE:
  7
SIMPLEX
100
AcDbText
  0
SOLID
  5
C0
330
64
100
AcDbEntity
  8
TRIM
100
AcDbTrace
 10
8.395030933405159
 20
-3.019032844544667
 30
0.0
 11
8.560282995436843
 21
-2.974753687975699
 31
0.0
 12
8.420736295429295
 22
-3.0026567228558
 32
0.0
 13
8.55406159553712
 23
-2.96693231636127
 33
0.0
  0
SOLID
  5
C1
330
64
100
AcDbEntity
  8
TRIM
100
AcDbTrace
 10
8.522313758988447
 20
-2.867343079880239
 30
0.0
 11
8.395030933405159
 21
-3.019032844544667
 31
0.0
 12
8.537152506492091
 22
-2.863917285085504
 32
0.0
 13
8.420736295429295
 23
-3.0026567228558
 33
0.0
  0
SOLID
  5
C2
330
64
100
AcDbEntity
  8
TRIM
100
AcDbTrace
 10
8.117518783442983
 20
-3.019032844544667
 30
0.0
 11
8.282770845474667
 21
-2.974753687975699
 31
0.0
 12
8.143224145467119
 22
-3.0026567228558
 32
0.0
 13
8.276549445574943
 23
-2.96693231636127
 33
0.0
  0
SOLID
  5
C3
330
64
100
AcDbEntity
  8
TRIM
100
AcDbTrace
 10
8.455010111461474
 20
-2.98082189393731
 30
0.0
 11
8.55693750316362
 21
-2.859349558692523
 31
0.0
 12
8.545766395670822
 22
-2.956503820875366
 32
0.0
 13
8.589674361676335
 23
-2.873924947169272
 33
0.0
  0
SOLID
  5
C4
330
64
100
AcDbEntity
  8
TRIM
100
AcDbTrace
 10
8.461289216838943
 20
-2.840173203207459
 30
0.0
 11
8.522313758988447
 21
-2.867343079880239
 31
0.0
 12
8.487299018406886
 22
-2.841721082127282
 32
0.0
 13
8.537152506492091
 23
-2.863917285085504
 33
0.0
  0
SOLID
  5
C5
330
64
100
AcDbEntity
  8
TRIM
100
AcDbTrace
 10
8.595114244279553
 20
-2.889723513398812
 30
0.0
 11
8.639714842774495
 21
-2.90958097923069
 31
0.0
 12
8.599194156231964
 22
-2.901572438070967
 32
0.0
 13
8.643794754726908
 23
-2.921429903902845
 33
0.0
  0
SOLID
  5
C6
330
64
100
AcDbEntity
  8
TRIM
100
AcDbTrace
 10
8.560282995436843
 20
-2.974753687975699
 30
0.0
 11
8.599194156231964
 21
-2.901572438070967
 31
0.0
 12
8.55406159553712
 22
-2.96693231636127
 32
0.0
 13
8.595114244279553
 23
-2.889723513398812
 33
0.0
  0
SOLID
  5
C7
330
64
100
AcDbEntity
  8
TRIM
100
AcDbTrace
 10
8.683194142578569
 20
-3.019032844544667
 30
0.0
 11
8.848446204610253
 21
-2.974753687975698
 31
0.0
 12
8.708899504602705
 22
-3.002656722855799
 32
0.0
 13
8.84222480471053
 23
-2.966932316361269
 33
0.0
  0
TEXT
  5
C8
330
64
100
AcDbEntity
  8
TRIM
100
AcDbText
 10
8.081759072479057
 20
-1.82300850763029
 30
0.0
 40
0.1
  1
SCALE:
  7
SIMPLEX
100
AcDbText
  0
LINE
  5
C9
330
64
100
AcDbEntity
  8
TRIM
100
AcDbLine
 10
8.736598448036387
 20
-2.387839598078761
 30
0.0
 11
8.736598448036385
 21
-2.567839598078761
 31
0.0
  0
SOLID
  5
CA
330
64
100
AcDbEntity
  8
TRIM
100
AcDbTrace
 10
8.378155510305097
 20
-2.775839101383578
 30
0.0
 11
8.61105887795114
 21
-2.775839101383578
 31
0.0
 12
8.383662446921107
 22
-2.785004183004206
 32
0.0
 13
8.591404296988672
 23
-2.785004183004206
 33
0.0
  0
SOLID
  5
CB
330
64
100
AcDbEntity
  8
TRIM
100
AcDbTrace
 10
8.054214834442042
 20
-2.785004183004206
 30
0.0
 11
8.600136825082429
 21
-2.638724826481723
 31
0.0
 12
8.123830540855387
 22
-2.775839101383578
 32
0.0
 13
8.582148901865819
 23
-2.653033066674476
 33
0.0
  0
SOLID
  5
CC
330
64
100
AcDbEntity
  8
TRIM
100
AcDbTrace
 10
8.216651482739846
 20
-2.763618992556074
 30
0.0
 11
8.558165004243674
 21
-2.672110720264814
 31
0.0
 12
8.509509192791364
 22
-2.763618992556074
 32
0.0
 13
8.509509192791364
 23
-2.763618992556074
 33
0.0
  0
SOLID
  5
CD
330
64
100
AcDbEntity
  8
TRIM
100
AcDbTrace
 10
8.054214834442042
 20
-2.785004183004206
 30
0.0
 11
8.313892147026496
 21
-2.785004183004206
 31
0.0
 12
8.123830540855387
 22
-2.775839101383578
 32
0.0
 13
8.333546727988967
 23
-2.775839101383578
 33
0.0
  0
SOLID
  5
CE
330
64
100
AcDbEntity
  8
TRIM
100
AcDbTrace
 10
8.553754672629134
 20
-2.725956968120363
 30
0.0
 11
8.879309457277582
 21
-2.638724826481723
 31
0.0
 12
8.535766749412525
 22
-2.740265208313116
 32
0.0
 13
8.861321534060971
 23
-2.653033066674476
 33
0.0
  0
SOLID
  5
CF
330
64
100
AcDbEntity
  8
TRIM
100
AcDbTrace
 10
8.495824114934999
 20
-2.763618992556074
 30
0.0
 11
8.837337636438828
 21
-2.672110720264814
 31
0.0
 12
8.788681824986518
 22
-2.763618992556074
 32
0.0
 13
8.788681824986518
 23
-2.763618992556074
 33
0.0
  0
SOLID
  5
D0
330
64
100
AcDbEntity
  8
TRIM
100
AcDbTrace
 10
8.646885583401425
 20
-2.792355785765881
 30
0.0
 11
8.700280197025822
 21
-2.775839101383577
 31
0.0
 12
8.655667660267273
 22
-2.775839101383577
 32
0.0
 13
8.655667660267273
 23
-2.775839101383577
 33
0.0
  0
SOLID
  5
D1
330
64
100
AcDbEntity
  8
TRIM
100
AcDbTrace
 10
8.535766749412525
 20
-2.740265208313116
 30
0.0
 11
8.582148901865819
 21
-2.653033066674476
 31
0.0
 12
8.553754672629134
 22
-2.725956968120363
 32
0.0
 13
8.600136825082429
 23
-2.638724826481723
 33
0.0
  0
SOLID
  5
D2
330
64
100
AcDbEntity
  8
TRIM
100
AcDbTrace
 10
8.814939381607677
 20
-2.740265208313116
 30
0.0
 11
8.861321534060971
 21
-2.653033066674476
 31
0.0
 12
8.832927304824286
 22
-2.725956968120363
 32
0.0
 13
8.879309457277582
 23
-2.638724826481723
 33
0.0
  0
LINE
  5
D3
330
64
100
AcDbEntity
  8
TRIM
100
AcDbLine
 10
8.736598448036387
 20
-2.027839598078761
 30
0.0
 11
8.736598448036387
 21
-2.207839598078761
 31
0.0
  0
TEXT
  5
D4
330
64
100
AcDbEntity
  8
TRIM
 62
     2
100
AcDbText
 10
8.124247898167478
 20
-1.28686164349151
 30
0.0
 40
0.085
  1
X.XX   %%P.01
  7
SIMPLEX
100
AcDbText
  0
TEXT
  5
D5
330
64
100
AcDbEntity
  8
TRIM
 62
     2
100
AcDbText
 10
8.124247898167478
 20
-1.432575929205795
 30
0.0
 40
0.085
  1
X.X    %%P.1
  7
SIMPLEX
100
AcDbText
  0
TEXT
  5
D6
330
64
100
AcDbEntity
  8
TRIM
100
AcDbText
 10
8.051411800410113
 20
-0.6791166885282949
 30
0.0
 40
0.08
  1
FINISH CODE:
  7
SIMPLEX
100
AcDbText
  0
LINE
  5
D7
330
64
100
AcDbEntity
  8
TRIM
100
AcDbLine
 10
9.212094456945933
 20
-1.667839598078761
 30
0.0
 11
9.212094456945999
 21
-3.077839598078762
 31
0.0
  0
LINE
  5
D8
330
64
100
AcDbEntity
  8
TRIM
100
AcDbLine
 10
9.182094456945934
 20
-1.667839598078761
 30
0.0
 11
9.182094456945998
 21
-3.077839598078762
 31
0.0
  0
LINE
  5
D9
330
64
100
AcDbEntity
  8
TRIM
100
AcDbLine
 10
9.434119636955241
 20
-1.667839598078761
 30
0.0
 11
9.434119636955237
 21
-2.747839598078762
 31
0.0
  0
LINE
  5
DA
330
64
100
AcDbEntity
  8
TRIM
100
AcDbLine
 10
9.994468265884984
 20
-1.667839598078761
 30
0.0
 11
9.994468265884982
 21
-2.747839598078762
 31
0.0
  0
LINE
  5
DB
330
64
100
AcDbEntity
  8
TRIM
100
AcDbLine
 10
10.42
 20
-3.077839598078762
 30
0.0
 11
9.212094456945999
 21
-3.077839598078762
 31
0.0
  0
LINE
  5
DC
330
64
100
AcDbEntity
  8
TRIM
100
AcDbLine
 10
10.42
 20
-3.729999999999999
 30
0.0
 11
10.42
 21
-3.107839598078762
 31
0.0
  0
LINE
  5
DD
330
64
100
AcDbEntity
  8
TRIM
100
AcDbLine
 10
10.42
 20
-3.91
 30
0.0
 11
10.42
 21
-3.759999999999999
 31
0.0
  0
LINE
  5
DE
330
64
100
AcDbEntity
  8
TRIM
100
AcDbLine
 10
10.42
 20
-1.847839598078761
 30
0.0
 11
9.994468265884984
 21
-1.847839598078761
 31
0.0
  0
LINE
  5
DF
330
64
100
AcDbEntity
  8
TRIM
100
AcDbLine
 10
10.42
 20
-2.027839598078761
 30
0.0
 11
9.212094456945946
 21
-2.027839598078761
 31
0.0
  0
LINE
  5
E0
330
64
100
AcDbEntity
  8
TRIM
100
AcDbLine
 10
10.42
 20
-2.207839598078761
 30
0.0
 11
9.212094456945953
 21
-2.207839598078761
 31
0.0
  0
LINE
  5
E1
330
64
100
AcDbEntity
  8
TRIM
100
AcDbLine
 10
10.42
 20
-2.387839598078762
 30
0.0
 11
9.21209445694596
 21
-2.387839598078761
 31
0.0
  0
LINE
  5
E2
330
64
100
AcDbEntity
  8
TRIM
100
AcDbLine
 10
10.42
 20
-2.567839598078762
 30
0.0
 11
9.212094456945967
 21
-2.567839598078762
 31
0.0
  0
LINE
  5
E3
330
64
100
AcDbEntity
  8
TRIM
100
AcDbLine
 10
10.42
 20
-2.747839598078762
 30
0.0
 11
9.212094456945974
 21
-2.747839598078762
 31
0.0
  0
SOLID
  5
E4
330
64
100
AcDbEntity
  8
TRIM
100
AcDbTrace
 10
9.080703975952358
 20
-2.785004183004205
 30
0.0
 11
9.158482089472734
 21
-2.638724826481723
 31
0.0
 12
9.075197039336348
 22
-2.775839101383577
 32
0.0
 13
9.140494166256125
 23
-2.653033066674477
 33
0.0
  0
SOLID
  5
E5
330
64
100
AcDbEntity
  8
TRIM
100
AcDbTrace
 10
8.949337806056693
 20
-2.785004183004205
 30
0.0
 11
9.080703975952358
 21
-2.785004183004205
 31
0.0
 12
8.943830869440684
 22
-2.775839101383577
 32
0.0
 13
9.075197039336348
 23
-2.775839101383577
 33
0.0
  0
TEXT
  5
E6
330
64
100
AcDbEntity
  8
TRIM
 62
     2
100
AcDbText
 10
9.275556793178854
 20
-1.373612329971032
 30
0.0
 40
0.085
  1
X = Not to Scale
 41
0.9
  7
SIMPLEX
100
AcDbText
  0
TEXT
  5
E7
330
64
100
AcDbEntity
  8
TRIM
 62
     2
100
AcDbText
 10
9.264813425745913
 20
-1.064786930032387
 30
0.0
 40
0.085
  1
FRACT  %%P 1/64
  7
SIMPLEX
100
AcDbText
  0
TEXT
  5
E8
330
64
100
AcDbEntity
  8
TRIM
 62
     2
100
AcDbText
 10
9.26577666078273
 20
-1.226696154693744
 30
0.0
 40
0.085
  1
ANGLE  %%P .1%%D
  7
SIMPLEX
100
AcDbText
  0
ATTDEF
  5
E9
330
64
100
AcDbEntity
  8
DIM
100
AcDbText
 10
9.051473622660806
 20
-0.6786209269211008
 30
0.0
 40
0.08
  1

  7
SIMPLEX
100
AcDbAttributeDefinition
  3
FINISH_CODE
  2
FINISH_CODE
 70
     0
  0
ATTDEF
  5
EA
330
64
100
AcDbEntity
  8
DIM
100
AcDbText
 10
8.365284678605988
 20
-2.163045795970842
 30
0.0
 40
0.08
  1

  7
SIMPLEX
 72
     1
 11
8.365284678605988
 21
-2.163045795970842
 31
0.0
100
AcDbAttributeDefinition
  3
DATE_DRAWN
  2
DATE
 70
     0
  0
ATTDEF
  5
EB
330
64
100
AcDbEntity
  8
DIM
100
AcDbText
 10
8.978351545515772
 20
-2.161928530186552
 30
0.0
 40
0.08
  1

  7
SIMPLEX
 72
     1
 11
8.978351545515772
 21
-2.161928530186552
 31
0.0
100
AcDbAttributeDefinition
  3
DRAWN_BY?
  2
WHO?
 70
     0
  0
ATTDEF
  5
EC
330
64
100
AcDbEntity
  8
DIM
100
AcDbText
 10
8.365284678605986
 20
-2.523045795970843
 30
0.0
 40
0.08
  1

  7
SCRIPT
 72
     1
 11
8.365284678605986
 21
-2.523045795970843
 31
0.0
100
AcDbAttributeDefinition
  3
DATE_APPROVED
  2
DATE
 70
     0
  0
ATTDEF
  5
ED
330
64
100
AcDbEntity
  8
DIM
100
AcDbText
 10
8.978351545515771
 20
-2.521928530186552
 30
0.0
 40
0.08
  1

  7
SCRIPT
 72
     1
 11
8.978351545515771
 21
-2.521928530186552
 31
0.0
100
AcDbAttributeDefinition
  3
APPROVED_BY?
  2
WHO?
 70
     0
  0
ATTDEF
  5
EE
330
64
100
AcDbEntity
  8
DIM
100
AcDbText
 10
9.237077138971326
 20
-3.033309508920311
 30
0.0
 40
0.09
  1

 41
0.95
  7
SCRIPT
100
AcDbAttributeDefinition
  3
ENGINEER_IN_CHARGE
  2
WHO?
 70
     0
  0
LWPOLYLINE
  5
EF
330
64
100
AcDbEntity
  8
DIM
100
AcDbPolyline
 90
        2
 70
     1
 43
0.004
 10
10.01258391283648
 20
-1.222488300434772
 42
1.0
 10
10.01658391283648
 20
-1.222488300434772
 42
1.0
  0
LINE
  5
F0
330
64
100
AcDbEntity
  8
TRIM
100
AcDbLine
 10
9.434119636955241
 20
-1.847839598078761
 30
0.0
 11
9.212094456945941
 21
-1.847839598078761
 31
0.0
  0
LINE
  5
F1
330
64
100
AcDbEntity
  8
TRIM
100
AcDbLine
 10
9.994468265884984
 20
-1.847839598078761
 30
0.0
 11
9.434119636955241
 21
-1.847839598078761
 31
0.0
  0
TEXT
  5
F2
330
64
100
AcDbEntity
  8
DIM
100
AcDbText
 10
9.227107046950591
 20
-1.816589598078761
 30
0.0
 40
0.09
  1
REV
 41
0.8
 72
     1
 11
9.323107046950591
 21
-1.816589598078761
 31
0.0
100
AcDbText
  0
TEXT
  5
F3
330
64
100
AcDbEntity
  8
DIM
100
AcDbText
 10
9.571579665705828
 20
-1.816589598078761
 30
0.0
 40
0.09
  1
DATE
 41
0.9
 72
     1
 11
9.714293951420113
 21
-1.816589598078761
 31
0.0
100
AcDbText
  0
TEXT
  5
F4
330
64
100
AcDbEntity
  8
DIM
100
AcDbText
 10
10.01366563104356
 20
-1.816589598078761
 30
0.0
 40
0.09
  1
INITIALS
 41
0.8
 72
     1
 11
10.21423705961499
 21
-1.816589598078761
 31
0.0
100
AcDbText
  0
ARC
  5
F5
330
64
100
AcDbEntity
  8
TRIM
 62
     2
100
AcDbCircle
 10
9.326376609495
 20
-1.437508522647592
 30
0.0
 40
0.044134349367113
100
AcDbArc
 50
59.21851757076735
 51
120.7994641440639
  0
ARC
  5
F6
330
64
100
AcDbEntity
  8
TRIM
 62
     2
100
AcDbCircle
 10
9.2842708471813
 20
-1.366873947280362
 30
0.0
 40
0.0380978733763314
100
AcDbArc
 50
220.8008004120345
 51
300.7994641440634
  0
LINE
  5
F7
330
64
100
AcDbEntity
  8
TRIM
100
AcDbLine
 10
8.026999999999999
 20
-3.909999999999996
 30
0.0
 11
8.099999999999999
 21
-3.909999999999997
 31
0.0
  0
TEXT
  5
F8
330
64
100
AcDbEntity
  8
DIM
100
AcDbText
 10
9.726666666666666
 20
-3.97
 30
0.0
 40
0.04
  1
F04-0001-01 REV. 00
 72
     2
 11
10.42
 21
-3.97
 31
0.0
100
AcDbText
  0
ENDBLK
  5
FA
330
64
100
AcDbEntity
  8
0
100
AcDbBlockEnd
  0
BLOCK
  5
518
330
515
100
AcDbEntity
  8
0
100
AcDbBlockBegin
  2
A$C4F0D77C9
 70
     0
 10
0.0
 20
0.0
 30
0.0
  3
A$C4F0D77C9
  1

  0
ARC
  5
516
330
515
100
AcDbEntity
  8
PART
100
AcDbCircle
 10
-0.0043004447844766
 20
-0.1455966359357177
 30
0.0
 40
0.1854463893224625
100
AcDbArc
 50
51.73125637487444
 51
88.67121982469747
  0
ARC
  5
517
330
515
100
AcDbEntity
  8
PART
100
AcDbCircle
 10
-0.0043004447844766
 20
1.748843028290313
 30
0.0
 40
0.1854463893224625
100
AcDbArc
 50
271.3287801753025
 51
308.2687436251256
  0
ENDBLK
  5
519
330
515
100
AcDbEntity
  8
0
100
AcDbBlockEnd
  0
BLOCK
  5
F43
330
EBB
100
AcDbEntity
  8
0
100
AcDbBlockBegin
  2
TFT_A2
 70
     2
 10
0.0
 20
0.0
 30
0.0
  3
TFT_A2
  1

  0
ATTDEF
  5
EBC
330
EBB
100
AcDbEntity
  8
DIM
100
AcDbText
 10
3.89797215085097
 20
-3.843205428489187
 30
0.0
 40
0.13
  1

  7
SIMPLEX
100
AcDbAttributeDefinition
  3
PART_DESCRIPTION
  2
PART_DESCRIPTION
 70
     0
  0
LINE
  5
EBD
330
EBB
100
AcDbEntity
  8
TRIM
100
AcDbLine
 10
0.0000000000000004
 20
3.914999999999999
 30
0.0
 11
10.45
 21
3.914999999999999
 31
0.0
  0
LINE
  5
EBE
330
EBB
100
AcDbEntity
  8
TRIM
100
AcDbLine
 10
2.941094565832298
 20
-3.954999999999999
 30
0.0
 11
7.996999999999999
 21
-3.954999999999999
 31
0.0
  0
LINE
  5
EBF
330
EBB
100
AcDbEntity
  8
TRIM
100
AcDbLine
 10
2.94109456583225
 20
-3.572014178481999
 30
0.0
 11
7.996999999999999
 21
-3.572014178481999
 31
0.0
  0
LINE
  5
EC0
330
EBB
100
AcDbEntity
  8
TRIM
100
AcDbLine
 10
0.0
 20
-3.985
 30
0.0
 11
10.45
 21
-3.984999999999999
 31
0.0
  0
LINE
  5
EC1
330
EBB
100
AcDbEntity
  8
TRIM
100
AcDbLine
 10
10.42
 20
3.884999999999998
 30
0.0
 11
0.0299999999999994
 21
3.884999999999998
 31
0.0
  0
LINE
  5
EC2
330
EBB
100
AcDbEntity
  8
TRIM
100
AcDbLine
 10
0.0300000000000491
 20
-3.542014178481998
 30
0.0
 11
7.996999999999999
 21
-3.542014178481999
 31
0.0
  0
LINE
  5
EC3
330
EBB
100
AcDbEntity
  8
TRIM
100
AcDbLine
 10
0.0
 20
3.914999999999999
 30
0.0
 11
0.0
 21
-3.985
 31
0.0
  0
LINE
  5
EC4
330
EBB
100
AcDbEntity
  8
TRIM
100
AcDbLine
 10
0.0299999999999994
 20
3.884999999999998
 30
0.0
 11
0.0300000000000003
 21
-3.542014178481998
 31
0.0
  0
ATTDEF
  5
EC5
330
EBB
100
AcDbEntity
  8
DIM
100
AcDbText
 10
0.7153226045877182
 20
-3.844114383024713
 30
0.0
 40
0.13
  1

  7
SIMPLEX
100
AcDbAttributeDefinition
  3
PART_#
  2
PART_#
 70
     0
  0
LINE
  5
EC6
330
EBB
100
AcDbEntity
  8
TRIM
100
AcDbLine
 10
0.0299999999999994
 20
-3.954999999999999
 30
0.0
 11
2.019143811352865
 21
-3.954999999999999
 31
0.0
  0
LINE
  5
EC7
330
EBB
100
AcDbEntity
  8
TRIM
100
AcDbLine
 10
0.0300000000000491
 20
-3.572014178481998
 30
0.0
 11
2.019143811352817
 21
-3.572014178481998
 31
0.0
  0
TEXT
  5
EC8
330
EBB
100
AcDbEntity
  8
TRIM
100
AcDbText
 10
0.1101805231206985
 20
-3.853119266055138
 30
0.0
 40
0.16
  1
ITEM:
 41
0.9
  7
SIMPLEX
100
AcDbText
  0
LINE
  5
EC9
330
EBB
100
AcDbEntity
  8
TRIM
100
AcDbLine
 10
0.0300000000000003
 20
-3.572014178481998
 30
0.0
 11
0.0299999999999994
 21
-3.954999999999999
 31
0.0
  0
TEXT
  5
ECA
330
EBB
100
AcDbEntity
  8
TRIM
100
AcDbText
 10
3.018641921597364
 20
-3.853119266055189
 30
0.0
 40
0.16
  1
DESCR:
 41
0.9
  7
SIMPLEX
100
AcDbText
  0
LINE
  5
ECB
330
EBB
100
AcDbEntity
  8
TRIM
100
AcDbLine
 10
2.049143811352816
 20
-3.572014178481998
 30
0.0
 11
2.91109456583225
 21
-3.572014178481999
 31
0.0
  0
LINE
  5
ECC
330
EBB
100
AcDbEntity
  8
TRIM
100
AcDbLine
 10
2.049143811352865
 20
-3.954999999999999
 30
0.0
 11
2.911094565832298
 21
-3.954999999999999
 31
0.0
  0
TEXT
  5
ECD
330
EBB
100
AcDbEntity
  8
TRIM
100
AcDbText
 10
2.246095856974888
 20
-3.720935955104524
 30
0.0
 40
0.1
  1
SHEET
  7
SIMPLEX
100
AcDbText
  0
LINE
  5
ECE
330
EBB
100
AcDbEntity
  8
TRIM
100
AcDbLine
 10
2.049143811352816
 20
-3.572014178481999
 30
0.0
 11
2.049143811352866
 21
-3.954999999999999
 31
0.0
  0
LINE
  5
ECF
330
EBB
100
AcDbEntity
  8
TRIM
100
AcDbLine
 10
2.019143811352817
 20
-3.572014178481999
 30
0.0
 11
2.019143811352866
 21
-3.954999999999999
 31
0.0
  0
LINE
  5
ED0
330
EBB
100
AcDbEntity
  8
TRIM
100
AcDbLine
 10
2.91109456583225
 20
-3.572014178481999
 30
0.0
 11
2.911094565832298
 21
-3.954999999999999
 31
0.0
  0
LINE
  5
ED1
330
EBB
100
AcDbEntity
  8
TRIM
100
AcDbLine
 10
2.94109456583225
 20
-3.572014178481999
 30
0.0
 11
2.941094565832298
 21
-3.954999999999999
 31
0.0
  0
LINE
  5
ED2
330
EBB
100
AcDbEntity
  8
TRIM
100
AcDbLine
 10
10.42
 20
-3.077839598078762
 30
0.0
 11
10.42
 21
-0.5484946318477096
 31
0.0
  0
LINE
  5
ED3
330
EBB
100
AcDbEntity
  8
TRIM
100
AcDbLine
 10
8.026999999999999
 20
-2.567839598078761
 30
0.0
 11
8.026999999999999
 21
-0.5484946318477096
 31
0.0
  0
LINE
  5
ED4
330
EBB
100
AcDbEntity
  8
TRIM
100
AcDbLine
 10
7.996999999999999
 20
-3.542014178482002
 30
0.0
 11
7.997000000000001
 21
-0.5184946318477102
 31
0.0
  0
LINE
  5
ED5
330
EBB
100
AcDbEntity
  8
TRIM
100
AcDbLine
 10
10.45
 20
-3.985000000000002
 30
0.0
 11
10.45
 21
3.914999999999997
 31
0.0
  0
ATTDEF
  5
ED6
330
EBB
100
AcDbEntity
  8
DIM
100
AcDbText
 10
8.683865875782455
 20
-1.815356929333484
 30
0.0
 40
0.08
  1

  7
SIMPLEX
100
AcDbAttributeDefinition
  3
DRAWING_SCALE
  2
SCALE
 70
     0
  0
SOLID
  5
ED7
330
EBB
100
AcDbEntity
  8
TRIM
100
AcDbTrace
 10
8.81168477605845
 20
-2.740265208313116
 30
0.0
 11
9.137239560706898
 21
-2.653033066674477
 31
0.0
 12
8.829672699275059
 22
-2.725956968120363
 32
0.0
 13
9.155227483923507
 23
-2.638724826481723
 33
0.0
  0
SOLID
  5
ED8
330
EBB
100
AcDbEntity
  8
TRIM
100
AcDbTrace
 10
8.771742141580924
 20
-2.763618992556074
 30
0.0
 11
9.113255663084753
 21
-2.672110720264814
 31
0.0
 12
9.064599851632445
 22
-2.763618992556074
 32
0.0
 13
9.064599851632445
 23
-2.763618992556074
 33
0.0
  0
SOLID
  5
ED9
330
EBB
100
AcDbEntity
  8
TRIM
100
AcDbTrace
 10
8.739918715085659
 20
-2.98082189393731
 30
0.0
 11
8.922173589525288
 21
-2.763618992556074
 31
0.0
 12
8.830674999295007
 22
-2.956503820875365
 32
0.0
 13
8.933233681736778
 23
-2.763618992556074
 33
0.0
  0
SOLID
  5
EDA
330
EBB
100
AcDbEntity
  8
TRIM
100
AcDbTrace
 10
8.845191599061026
 20
-2.974753687975698
 30
0.0
 11
8.946083200507466
 21
-2.785004183004205
 31
0.0
 12
8.838970199161304
 22
-2.966932316361269
 32
0.0
 13
8.940576263891458
 23
-2.775839101383577
 33
0.0
  0
SOLID
  5
EDB
330
EBB
100
AcDbEntity
  8
TRIM
100
AcDbTrace
 10
8.895967481575326
 20
-2.775839101383577
 30
0.0
 11
8.705644899053478
 21
-3.002656722855799
 31
0.0
 12
8.876312900612855
 22
-2.785004183004205
 32
0.0
 13
8.679939537029342
 23
-3.019032844544667
 33
0.0
  0
SOLID
  5
EDC
330
EBB
100
AcDbEntity
  8
TRIM
100
AcDbTrace
 10
8.707572055084694
 20
-2.775839101383577
 30
0.0
 11
8.895967481575326
 21
-2.775839101383577
 31
0.0
 12
8.713078991700704
 22
-2.785004183004205
 32
0.0
 13
8.876312900612855
 23
-2.785004183004205
 33
0.0
  0
LINE
  5
EDD
330
EBB
100
AcDbEntity
  8
TRIM
 62
     2
100
AcDbLine
 10
10.41418891389197
 20
-2.886394029026662
 30
0.0
 11
9.212094456945999
 21
-2.886394029026662
 31
0.0
  0
LINE
  5
EDE
330
EBB
100
AcDbEntity
  8
TRIM
100
AcDbLine
 10
9.182094456945966
 20
-2.567839598078761
 30
0.0
 11
8.026999999999999
 21
-2.567839598078761
 31
0.0
  0
LINE
  5
EDF
330
EBB
100
AcDbEntity
  8
TRIM
100
AcDbLine
 10
9.182094456945959
 20
-2.387839598078761
 30
0.0
 11
8.026999999999999
 21
-2.387839598078761
 31
0.0
  0
LINE
  5
EE0
330
EBB
100
AcDbEntity
  8
TRIM
100
AcDbLine
 10
9.182094456945952
 20
-2.207839598078761
 30
0.0
 11
8.026999999999999
 21
-2.207839598078761
 31
0.0
  0
LINE
  5
EE1
330
EBB
100
AcDbEntity
  8
TRIM
100
AcDbLine
 10
9.182094456945947
 20
-2.027839598078761
 30
0.0
 11
8.026999999999999
 21
-2.027839598078761
 31
0.0
  0
LINE
  5
EE2
330
EBB
100
AcDbEntity
  8
TRIM
100
AcDbLine
 10
9.182094456945941
 20
-1.847839598078761
 30
0.0
 11
8.026999999999999
 21
-1.847839598078761
 31
0.0
  0
LINE
  5
EE3
330
EBB
100
AcDbEntity
  8
TRIM
100
AcDbLine
 10
9.18209445694598
 20
-2.567839598078761
 30
0.0
 11
8.026999999999999
 21
-2.567839598078761
 31
0.0
  0
LINE
  5
EE4
330
EBB
100
AcDbEntity
  8
TRIM
100
AcDbLine
 10
9.182094456945998
 20
-3.077839598078762
 30
0.0
 11
8.026999999999999
 21
-3.077839598078762
 31
0.0
  0
LINE
  5
EE5
330
EBB
100
AcDbEntity
  8
TRIM
100
AcDbLine
 10
10.42
 20
-1.46683405829009
 30
0.0
 11
8.026999999999999
 21
-1.46683405829009
 31
0.0
  0
LINE
  5
EE6
330
EBB
100
AcDbEntity
  8
TRIM
100
AcDbLine
 10
10.42
 20
-1.667839598078761
 30
0.0
 11
8.026999999999999
 21
-1.667839598078761
 31
0.0
  0
LINE
  5
EE7
330
EBB
100
AcDbEntity
  8
TRIM
100
AcDbLine
 10
8.026999999999999
 20
-0.8849426135495427
 30
0.0
 11
10.42099943010428
 21
-0.8849426135495427
 31
0.0
  0
TEXT
  5
EE8
330
EBB
100
AcDbEntity
  8
TRIM
 62
     2
100
AcDbText
 10
8.124247898167478
 20
-1.141147357777224
 30
0.0
 40
0.085
  1
X.XXX  %%P.005
  7
SIMPLEX
100
AcDbText
  0
LINE
  5
EE9
330
EBB
100
AcDbEntity
  8
TRIM
100
AcDbLine
 10
8.026999999999999
 20
-0.7121164314951956
 30
0.0
 11
10.42
 21
-0.7121164314951956
 31
0.0
  0
TEXT
  5
EEA
330
EBB
100
AcDbEntity
  8
TRIM
 62
     2
100
AcDbText
 10
8.113788057094124
 20
-0.9984452402764492
 30
0.0
 40
0.085
  1
X.XXXX %%P.005
  7
SIMPLEX
100
AcDbText
  0
TEXT
  5
EEB
330
EBB
100
AcDbEntity
  8
TRIM
100
AcDbText
 10
8.077925744842618
 20
-2.005952075092129
 30
0.0
 40
0.1
  1
PRINT DRAWN
  7
SIMPLEX
100
AcDbText
  0
TEXT
  5
EEC
330
EBB
100
AcDbEntity
  8
TRIM
100
AcDbText
 10
9.277645855643239
 20
-2.851140473901025
 30
0.0
 40
0.07
  1
DESIGN ENGINEER
  7
SIMPLEX
100
AcDbText
  0
TEXT
  5
EED
330
EBB
100
AcDbEntity
  8
TRIM
100
AcDbText
 10
8.07456365306904
 20
-2.355609619544289
 30
0.0
 40
0.1
  1
PRINT APPROVED
 41
0.8652699386053429
  7
SIMPLEX
 72
     5
 11
9.182933241092074
 21
-2.355609619544289
 31
0.0
100
AcDbText
  0
LINE
  5
EEE
330
EBB
100
AcDbEntity
  8
TRIM
100
AcDbLine
 10
8.026999999999999
 20
-0.5484946318477096
 30
0.0
 11
10.42
 21
-0.5484946318477096
 31
0.0
  0
TEXT
  5
EEF
330
EBB
100
AcDbEntity
  8
TRIM
100
AcDbText
 10
8.034670626372317
 20
-1.618408047771838
 30
0.0
 40
0.1
  1
NOTE BREAK SHARP CORNERS .01 MIN.
 41
0.7771876393739456
  7
SIMPLEX
 72
     5
 11
10.38103711857746
 21
-1.618408047771838
 31
0.0
100
AcDbText
  0
TEXT
  5
EF0
330
EBB
100
AcDbEntity
  8
TRIM
100
AcDbText
 10
8.018980864762285
 20
-0.853198329249135
 30
0.0
 40
0.085
  1
TOLERANCES: UNLESS SPECIFIED OTHERWISE
 41
0.8248258057433957
  7
SIMPLEX
 72
     5
 11
10.40606602400299
 21
-0.853198329249135
 31
0.0
100
AcDbText
  0
SOLID
  5
EF1
330
EBB
100
AcDbEntity
  8
TRIM
100
AcDbTrace
 10
8.583576232620629
 20
-2.823724069304218
 30
0.0
 11
8.634010380351877
 21
-2.763618992556074
 31
0.0
 12
8.618926224879224
 22
-2.812789171092213
 32
0.0
 13
8.645070472563368
 23
-2.763618992556074
 33
0.0
  0
SOLID
  5
EF2
330
EBB
100
AcDbEntity
  8
TRIM
100
AcDbTrace
 10
8.518724148281583
 20
-2.843784920687047
 30
0.0
 11
8.684943396877871
 21
-2.792367920338641
 31
0.0
 12
8.631020354622052
 22
-2.893782413001149
 32
0.0
 13
8.631020354622052
 23
-2.893782413001149
 33
0.0
  0
SOLID
  5
EF3
330
EBB
100
AcDbEntity
  8
TRIM
100
AcDbTrace
 10
8.636460237225268
 20
-2.90958097923069
 30
0.0
 11
8.707572055084694
 21
-2.775839101383577
 31
0.0
 12
8.640540149177681
 22
-2.921429903902845
 32
0.0
 13
8.713078991700704
 23
-2.785004183004205
 33
0.0
  0
SOLID
  5
EF4
330
EBB
100
AcDbEntity
  8
TRIM
100
AcDbTrace
 10
8.571241428746345
 20
-2.805154665813232
 30
0.0
 11
8.458034611289717
 21
-2.840173203207459
 31
0.0
 12
8.576527773263896
 22
-2.813112981595083
 32
0.0
 13
8.484044412857659
 23
-2.841721082127282
 33
0.0
  0
SOLID
  5
EF5
330
EBB
100
AcDbEntity
  8
TRIM
100
AcDbTrace
 10
8.588149691439445
 20
-2.785004183004206
 30
0.0
 11
8.571241428746345
 21
-2.805154665813232
 31
0.0
 12
8.607804272401914
 22
-2.775839101383578
 32
0.0
 13
8.576527773263896
 23
-2.813112981595083
 33
0.0
  0
SOLID
  5
EF6
330
EBB
100
AcDbEntity
  8
TRIM
100
AcDbTrace
 10
8.273294840025716
 20
-2.96693231636127
 30
0.0
 11
8.37490090475587
 21
-2.775839101383578
 31
0.0
 12
8.27951623992544
 22
-2.974753687975699
 32
0.0
 13
8.38040784137188
 23
-2.785004183004206
 33
0.0
  0
SOLID
  5
EF7
330
EBB
100
AcDbEntity
  8
TRIM
100
AcDbTrace
 10
8.114264177893756
 20
-3.019032844544667
 30
0.0
 11
8.310637541477269
 21
-2.785004183004206
 31
0.0
 12
8.139969539917892
 22
-3.0026567228558
 32
0.0
 13
8.33029212243974
 23
-2.775839101383578
 33
0.0
  0
SOLID
  5
EF8
330
EBB
100
AcDbEntity
  8
TRIM
100
AcDbTrace
 10
8.174243355950073
 20
-2.98082189393731
 30
0.0
 11
8.356498230389703
 21
-2.763618992556074
 31
0.0
 12
8.26499964015942
 22
-2.956503820875365
 32
0.0
 13
8.367558322601194
 23
-2.763618992556074
 33
0.0
  0
LINE
  5
EF9
330
EBB
100
AcDbEntity
  8
TRIM
100
AcDbLine
 10
8.026999999999999
 20
-3.077839598078762
 30
0.0
 11
8.026999999999999
 21
-2.567839598078761
 31
0.0
  0
LINE
  5
EFA
330
EBB
100
AcDbEntity
  8
TRIM
100
AcDbLine
 10
7.996999999999999
 20
-3.955000000000002
 30
0.0
 11
7.996999999999999
 21
-3.572014178482002
 31
0.0
  0
SOLID
  5
EFB
330
EBB
100
AcDbEntity
  8
TRIM
100
AcDbTrace
 10
8.391776327855932
 20
-3.019032844544667
 30
0.0
 11
8.557028389887616
 21
-2.974753687975699
 31
0.0
 12
8.417481689880068
 22
-3.0026567228558
 32
0.0
 13
8.550806989987894
 23
-2.96693231636127
 33
0.0
  0
SOLID
  5
EFC
330
EBB
100
AcDbEntity
  8
TRIM
100
AcDbTrace
 10
8.51905915343922
 20
-2.867343079880239
 30
0.0
 11
8.391776327855932
 21
-3.019032844544667
 31
0.0
 12
8.533897900942864
 22
-2.863917285085504
 32
0.0
 13
8.417481689880068
 23
-3.0026567228558
 33
0.0
  0
SOLID
  5
EFD
330
EBB
100
AcDbEntity
  8
TRIM
100
AcDbTrace
 10
8.114264177893756
 20
-3.019032844544667
 30
0.0
 11
8.27951623992544
 21
-2.974753687975699
 31
0.0
 12
8.139969539917892
 22
-3.0026567228558
 32
0.0
 13
8.273294840025716
 23
-2.96693231636127
 33
0.0
  0
SOLID
  5
EFE
330
EBB
100
AcDbEntity
  8
TRIM
100
AcDbTrace
 10
8.451755505912247
 20
-2.98082189393731
 30
0.0
 11
8.553682897614393
 21
-2.859349558692523
 31
0.0
 12
8.542511790121595
 22
-2.956503820875366
 32
0.0
 13
8.586419756127108
 23
-2.873924947169272
 33
0.0
  0
SOLID
  5
EFF
330
EBB
100
AcDbEntity
  8
TRIM
100
AcDbTrace
 10
8.458034611289717
 20
-2.840173203207459
 30
0.0
 11
8.51905915343922
 21
-2.867343079880239
 31
0.0
 12
8.484044412857659
 22
-2.841721082127282
 32
0.0
 13
8.533897900942864
 23
-2.863917285085504
 33
0.0
  0
SOLID
  5
F00
330
EBB
100
AcDbEntity
  8
TRIM
100
AcDbTrace
 10
8.591859638730326
 20
-2.889723513398812
 30
0.0
 11
8.636460237225268
 21
-2.90958097923069
 31
0.0
 12
8.595939550682738
 22
-2.901572438070967
 32
0.0
 13
8.640540149177681
 23
-2.921429903902845
 33
0.0
  0
SOLID
  5
F01
330
EBB
100
AcDbEntity
  8
TRIM
100
AcDbTrace
 10
8.557028389887616
 20
-2.974753687975699
 30
0.0
 11
8.595939550682738
 21
-2.901572438070967
 31
0.0
 12
8.550806989987894
 22
-2.96693231636127
 32
0.0
 13
8.591859638730326
 23
-2.889723513398812
 33
0.0
  0
SOLID
  5
F02
330
EBB
100
AcDbEntity
  8
TRIM
100
AcDbTrace
 10
8.679939537029342
 20
-3.019032844544667
 30
0.0
 11
8.845191599061026
 21
-2.974753687975698
 31
0.0
 12
8.705644899053478
 22
-3.002656722855799
 32
0.0
 13
8.838970199161304
 23
-2.966932316361269
 33
0.0
  0
TEXT
  5
F03
330
EBB
100
AcDbEntity
  8
TRIM
100
AcDbText
 10
8.081759072479057
 20
-1.82300850763029
 30
0.0
 40
0.1
  1
SCALE:
  7
SIMPLEX
100
AcDbText
  0
LINE
  5
F04
330
EBB
100
AcDbEntity
  8
TRIM
100
AcDbLine
 10
8.736598448036387
 20
-2.387839598078761
 30
0.0
 11
8.736598448036385
 21
-2.567839598078761
 31
0.0
  0
SOLID
  5
F05
330
EBB
100
AcDbEntity
  8
TRIM
100
AcDbTrace
 10
8.37490090475587
 20
-2.775839101383578
 30
0.0
 11
8.607804272401914
 21
-2.775839101383578
 31
0.0
 12
8.38040784137188
 22
-2.785004183004206
 32
0.0
 13
8.588149691439445
 23
-2.785004183004206
 33
0.0
  0
SOLID
  5
F06
330
EBB
100
AcDbEntity
  8
TRIM
100
AcDbTrace
 10
8.050960228892815
 20
-2.785004183004206
 30
0.0
 11
8.596882219533203
 21
-2.638724826481723
 31
0.0
 12
8.12057593530616
 22
-2.775839101383578
 32
0.0
 13
8.578894296316592
 23
-2.653033066674476
 33
0.0
  0
SOLID
  5
F07
330
EBB
100
AcDbEntity
  8
TRIM
100
AcDbTrace
 10
8.21339687719062
 20
-2.763618992556074
 30
0.0
 11
8.554910398694447
 21
-2.672110720264814
 31
0.0
 12
8.506254587242137
 22
-2.763618992556074
 32
0.0
 13
8.506254587242137
 23
-2.763618992556074
 33
0.0
  0
SOLID
  5
F08
330
EBB
100
AcDbEntity
  8
TRIM
100
AcDbTrace
 10
8.050960228892815
 20
-2.785004183004206
 30
0.0
 11
8.310637541477269
 21
-2.785004183004206
 31
0.0
 12
8.12057593530616
 22
-2.775839101383578
 32
0.0
 13
8.33029212243974
 23
-2.775839101383578
 33
0.0
  0
SOLID
  5
F09
330
EBB
100
AcDbEntity
  8
TRIM
100
AcDbTrace
 10
8.550500067079907
 20
-2.725956968120363
 30
0.0
 11
8.876054851728355
 21
-2.638724826481723
 31
0.0
 12
8.532512143863298
 22
-2.740265208313116
 32
0.0
 13
8.858066928511744
 23
-2.653033066674476
 33
0.0
  0
SOLID
  5
F0A
330
EBB
100
AcDbEntity
  8
TRIM
100
AcDbTrace
 10
8.492569509385772
 20
-2.763618992556074
 30
0.0
 11
8.834083030889601
 21
-2.672110720264814
 31
0.0
 12
8.785427219437291
 22
-2.763618992556074
 32
0.0
 13
8.785427219437291
 23
-2.763618992556074
 33
0.0
  0
SOLID
  5
F0B
330
EBB
100
AcDbEntity
  8
TRIM
100
AcDbTrace
 10
8.643630977852199
 20
-2.792355785765881
 30
0.0
 11
8.697025591476595
 21
-2.775839101383577
 31
0.0
 12
8.652413054718046
 22
-2.775839101383577
 32
0.0
 13
8.652413054718046
 23
-2.775839101383577
 33
0.0
  0
SOLID
  5
F0C
330
EBB
100
AcDbEntity
  8
TRIM
100
AcDbTrace
 10
8.532512143863298
 20
-2.740265208313116
 30
0.0
 11
8.578894296316592
 21
-2.653033066674476
 31
0.0
 12
8.550500067079907
 22
-2.725956968120363
 32
0.0
 13
8.596882219533203
 23
-2.638724826481723
 33
0.0
  0
SOLID
  5
F0D
330
EBB
100
AcDbEntity
  8
TRIM
100
AcDbTrace
 10
8.81168477605845
 20
-2.740265208313116
 30
0.0
 11
8.858066928511744
 21
-2.653033066674476
 31
0.0
 12
8.829672699275059
 22
-2.725956968120363
 32
0.0
 13
8.876054851728355
 23
-2.638724826481723
 33
0.0
  0
LINE
  5
F0E
330
EBB
100
AcDbEntity
  8
TRIM
100
AcDbLine
 10
8.736598448036387
 20
-2.027839598078761
 30
0.0
 11
8.736598448036387
 21
-2.207839598078761
 31
0.0
  0
TEXT
  5
F0F
330
EBB
100
AcDbEntity
  8
TRIM
 62
     2
100
AcDbText
 10
8.124247898167478
 20
-1.28686164349151
 30
0.0
 40
0.085
  1
X.XX   %%P.01
  7
SIMPLEX
100
AcDbText
  0
TEXT
  5
F10
330
EBB
100
AcDbEntity
  8
TRIM
 62
     2
100
AcDbText
 10
8.124247898167478
 20
-1.432575929205795
 30
0.0
 40
0.085
  1
X.X    %%P.1
  7
SIMPLEX
100
AcDbText
  0
TEXT
  5
F11
330
EBB
100
AcDbEntity
  8
TRIM
100
AcDbText
 10
8.051411800410113
 20
-0.6791166885282949
 30
0.0
 40
0.08
  1
FINISH CODE:
  7
SIMPLEX
100
AcDbText
  0
LINE
  5
F12
330
EBB
100
AcDbEntity
  8
TRIM
100
AcDbLine
 10
9.212094456945933
 20
-1.667839598078761
 30
0.0
 11
9.212094456945999
 21
-3.077839598078762
 31
0.0
  0
LINE
  5
F13
330
EBB
100
AcDbEntity
  8
TRIM
100
AcDbLine
 10
9.182094456945934
 20
-1.667839598078761
 30
0.0
 11
9.182094456945998
 21
-3.077839598078762
 31
0.0
  0
LINE
  5
F14
330
EBB
100
AcDbEntity
  8
TRIM
100
AcDbLine
 10
9.434119636955241
 20
-1.667839598078761
 30
0.0
 11
9.434119636955237
 21
-2.747839598078762
 31
0.0
  0
LINE
  5
F15
330
EBB
100
AcDbEntity
  8
TRIM
100
AcDbLine
 10
9.994468265884984
 20
-1.667839598078761
 30
0.0
 11
9.994468265884982
 21
-2.747839598078762
 31
0.0
  0
LINE
  5
F16
330
EBB
100
AcDbEntity
  8
TRIM
100
AcDbLine
 10
10.42
 20
-3.077839598078762
 30
0.0
 11
9.212094456945999
 21
-3.077839598078762
 31
0.0
  0
LINE
  5
F17
330
EBB
100
AcDbEntity
  8
TRIM
100
AcDbLine
 10
10.42
 20
-1.847839598078761
 30
0.0
 11
9.994468265884984
 21
-1.847839598078761
 31
0.0
  0
LINE
  5
F18
330
EBB
100
AcDbEntity
  8
TRIM
100
AcDbLine
 10
10.42
 20
-2.027839598078761
 30
0.0
 11
9.212094456945946
 21
-2.027839598078761
 31
0.0
  0
LINE
  5
F19
330
EBB
100
AcDbEntity
  8
TRIM
100
AcDbLine
 10
10.42
 20
-2.207839598078761
 30
0.0
 11
9.212094456945953
 21
-2.207839598078761
 31
0.0
  0
LINE
  5
F1A
330
EBB
100
AcDbEntity
  8
TRIM
100
AcDbLine
 10
10.42
 20
-2.387839598078762
 30
0.0
 11
9.21209445694596
 21
-2.387839598078761
 31
0.0
  0
LINE
  5
F1B
330
EBB
100
AcDbEntity
  8
TRIM
100
AcDbLine
 10
10.42
 20
-2.567839598078762
 30
0.0
 11
9.212094456945967
 21
-2.567839598078762
 31
0.0
  0
LINE
  5
F1C
330
EBB
100
AcDbEntity
  8
TRIM
100
AcDbLine
 10
10.42
 20
-2.747839598078762
 30
0.0
 11
9.212094456945974
 21
-2.747839598078762
 31
0.0
  0
SOLID
  5
F1D
330
EBB
100
AcDbEntity
  8
TRIM
100
AcDbTrace
 10
9.077449370403131
 20
-2.785004183004205
 30
0.0
 11
9.155227483923507
 21
-2.638724826481723
 31
0.0
 12
9.071942433787121
 22
-2.775839101383577
 32
0.0
 13
9.137239560706898
 23
-2.653033066674477
 33
0.0
  0
SOLID
  5
F1E
330
EBB
100
AcDbEntity
  8
TRIM
100
AcDbTrace
 10
8.946083200507466
 20
-2.785004183004205
 30
0.0
 11
9.077449370403131
 21
-2.785004183004205
 31
0.0
 12
8.940576263891458
 22
-2.775839101383577
 32
0.0
 13
9.071942433787121
 23
-2.775839101383577
 33
0.0
  0
TEXT
  5
F1F
330
EBB
100
AcDbEntity
  8
TRIM
 62
     2
100
AcDbText
 10
9.275556793178854
 20
-1.373612329971032
 30
0.0
 40
0.085
  1
X = Not to Scale
 41
0.9
  7
SIMPLEX
100
AcDbText
  0
TEXT
  5
F20
330
EBB
100
AcDbEntity
  8
TRIM
 62
     2
100
AcDbText
 10
9.264813425745913
 20
-1.064786930032387
 30
0.0
 40
0.085
  1
FRACT  %%P 1/64
  7
SIMPLEX
100
AcDbText
  0
TEXT
  5
F21
330
EBB
100
AcDbEntity
  8
TRIM
 62
     2
100
AcDbText
 10
9.26577666078273
 20
-1.226696154693744
 30
0.0
 40
0.085
  1
ANGLE  %%P .1%%D
  7
SIMPLEX
100
AcDbText
  0
ATTDEF
  5
F22
330
EBB
100
AcDbEntity
  8
DIM
100
AcDbText
 10
9.051473622660806
 20
-0.6786209269211008
 30
0.0
 40
0.08
  1

  7
SIMPLEX
100
AcDbAttributeDefinition
  3
FINISH_CODE
  2
FINISH_CODE
 70
     0
  0
LINE
  5
F23
330
EBB
100
AcDbEntity
  8
TRIM
100
AcDbLine
 10
10.42
 20
-0.5184946318477102
 30
0.0
 11
7.997000000000001
 21
-0.5184946318477102
 31
0.0
  0
LINE
  5
F24
330
EBB
100
AcDbEntity
  8
TRIM
100
AcDbLine
 10
10.42
 20
-0.5184946318477102
 30
0.0
 11
10.42
 21
3.884999999999996
 31
0.0
  0
ATTDEF
  5
F25
330
EBB
100
AcDbEntity
  8
DIM
100
AcDbText
 10
8.365284678605988
 20
-2.163045795970842
 30
0.0
 40
0.08
  1

  7
SIMPLEX
 72
     1
 11
8.365284678605988
 21
-2.163045795970842
 31
0.0
100
AcDbAttributeDefinition
  3
DATE_DRAWN
  2
DATE
 70
     0
  0
ATTDEF
  5
F26
330
EBB
100
AcDbEntity
  8
DIM
100
AcDbText
 10
2.477072168477677
 20
-3.901492051641427
 30
0.0
 40
0.1
  1

  7
SIMPLEX
 72
     1
 11
2.477072168477677
 21
-3.901492051641427
 31
0.0
100
AcDbAttributeDefinition
  3
SHEET_#
  2
#_OF_#
 70
     0
  0
ATTDEF
  5
F27
330
EBB
100
AcDbEntity
  8
DIM
100
AcDbText
 10
8.978351545515772
 20
-2.161928530186552
 30
0.0
 40
0.08
  1

  7
SIMPLEX
 72
     1
 11
8.978351545515772
 21
-2.161928530186552
 31
0.0
100
AcDbAttributeDefinition
  3
DRAWN_BY?
  2
WHO?
 70
     0
  0
ATTDEF
  5
F28
330
EBB
100
AcDbEntity
  8
DIM
100
AcDbText
 10
8.365284678605986
 20
-2.523045795970843
 30
0.0
 40
0.08
  1

  7
SCRIPT
 72
     1
 11
8.365284678605986
 21
-2.523045795970843
 31
0.0
100
AcDbAttributeDefinition
  3
DATE_APPROVED
  2
DATE
 70
     0
  0
ATTDEF
  5
F29
330
EBB
100
AcDbEntity
  8
DIM
100
AcDbText
 10
8.978351545515771
 20
-2.521928530186552
 30
0.0
 40
0.08
  1

  7
SCRIPT
 72
     1
 11
8.978351545515771
 21
-2.521928530186552
 31
0.0
100
AcDbAttributeDefinition
  3
APPROVED_BY?
  2
WHO?
 70
     0
  0
ATTDEF
  5
F2A
330
EBB
100
AcDbEntity
  8
DIM
100
AcDbText
 10
9.237077138971326
 20
-3.033309508920311
 30
0.0
 40
0.09
  1

 41
0.95
  7
SCRIPT
100
AcDbAttributeDefinition
  3
ENGINEER_IN_CHARGE
  2
WHO?
 70
     0
  0
LWPOLYLINE
  5
F2B
330
EBB
100
AcDbEntity
  8
DIM
100
AcDbPolyline
 90
        2
 70
     1
 43
0.004
 10
10.01258391283648
 20
-1.222488300434772
 42
1.0
 10
10.01658391283648
 20
-1.222488300434772
 42
1.0
  0
LINE
  5
F2C
330
EBB
100
AcDbEntity
  8
TRIM
100
AcDbLine
 10
9.434119636955241
 20
-1.847839598078761
 30
0.0
 11
9.212094456945941
 21
-1.847839598078761
 31
0.0
  0
LINE
  5
F2D
330
EBB
100
AcDbEntity
  8
TRIM
100
AcDbLine
 10
9.994468265884984
 20
-1.847839598078761
 30
0.0
 11
9.434119636955241
 21
-1.847839598078761
 31
0.0
  0
TEXT
  5
F2E
330
EBB
100
AcDbEntity
  8
DIM
100
AcDbText
 10
9.227107046950591
 20
-1.816589598078761
 30
0.0
 40
0.09
  1
REV
 41
0.8
 72
     1
 11
9.323107046950591
 21
-1.816589598078761
 31
0.0
100
AcDbText
  0
TEXT
  5
F2F
330
EBB
100
AcDbEntity
  8
DIM
100
AcDbText
 10
9.571579665705828
 20
-1.816589598078761
 30
0.0
 40
0.09
  1
DATE
 41
0.9
 72
     1
 11
9.714293951420113
 21
-1.816589598078761
 31
0.0
100
AcDbText
  0
TEXT
  5
F30
330
EBB
100
AcDbEntity
  8
DIM
100
AcDbText
 10
10.01366563104356
 20
-1.816589598078761
 30
0.0
 40
0.09
  1
INITIALS
 41
0.8
 72
     1
 11
10.21423705961499
 21
-1.816589598078761
 31
0.0
100
AcDbText
  0
ARC
  5
F31
330
EBB
100
AcDbEntity
  8
TRIM
 62
     2
100
AcDbCircle
 10
9.326376609495
 20
-1.437508522647592
 30
0.0
 40
0.044134349367113
100
AcDbArc
 50
59.21851757076735
 51
120.7994641440639
  0
ARC
  5
F32
330
EBB
100
AcDbEntity
  8
TRIM
 62
     2
100
AcDbCircle
 10
9.2842708471813
 20
-1.366873947280362
 30
0.0
 40
0.0380978733763314
100
AcDbArc
 50
220.8008004120345
 51
300.7994641440634
  0
TEXT
  5
F33
330
EBB
100
AcDbEntity
  8
TRIM
 62
     2
100
AcDbText
 10
8.329332859652945
 20
-3.388506794869928
 30
0.0
 40
0.09
  1
2800 E. EVANS AVE.
  7
SIMPLEX
100
AcDbText
  0
TEXT
  5
F34
330
EBB
100
AcDbEntity
  8
TRIM
 62
     2
100
AcDbText
 10
8.329332859652945
 20
-3.533224980134629
 30
0.0
 40
0.09
  1
VALPARAISO, IN 46383
  7
SIMPLEX
100
AcDbText
  0
TEXT
  5
F35
330
EBB
100
AcDbEntity
  8
TRIM
100
AcDbText
 10
8.329332859652945
 20
-3.683889060008822
 30
0.0
 40
0.09
  1
(219) 462-6161
  7
SIMPLEX
100
AcDbText
  0
LINE
  5
F36
330
EBB
100
AcDbEntity
  8
TRIM
100
AcDbLine
 10
8.026999999999999
 20
-3.729999999999999
 30
0.0
 11
10.42
 21
-3.729999999999999
 31
0.0
  0
LINE
  5
F37
330
EBB
100
AcDbEntity
  8
TRIM
100
AcDbLine
 10
8.026999999999999
 20
-3.759999999999999
 30
0.0
 11
10.42
 21
-3.759999999999999
 31
0.0
  0
LINE
  5
F38
330
EBB
100
AcDbEntity
  8
TRIM
100
AcDbLine
 10
8.026999999999999
 20
-3.909999999999999
 30
0.0
 11
10.42
 21
-3.91
 31
0.0
  0
ATTDEF
  5
F39
330
EBB
100
AcDbEntity
  8
DIM
100
AcDbText
 10
8.477862444579679
 20
-3.880427833455523
 30
0.0
 40
0.08
  1

  7
SIMPLEX
100
AcDbAttributeDefinition
  3
FILE_NAME
  2
FILE_NAME
 70
     0
  0
TEXT
  5
F3A
330
EBB
100
AcDbEntity
  8
TRIM
100
AcDbText
 10
8.294229539613001
 20
-3.246213262121685
 30
0.0
 40
0.1
  1
TASK FORCE TIPS, INC.
 51
10.0
  7
ROMAND
100
AcDbText
  0
LINE
  5
F3B
330
EBB
100
AcDbEntity
  8
TRIM
100
AcDbLine
 10
10.42
 20
-3.107839598078762
 30
0.0
 11
8.026999999999999
 21
-3.107839598078761
 31
0.0
  0
LINE
  5
F3C
330
EBB
100
AcDbEntity
  8
TRIM
100
AcDbLine
 10
8.026999999999999
 20
-3.91
 30
0.0
 11
8.026999999999999
 21
-3.759999999999999
 31
0.0
  0
LINE
  5
F3D
330
EBB
100
AcDbEntity
  8
TRIM
100
AcDbLine
 10
8.026999999999999
 20
-3.909999999999996
 30
0.0
 11
8.099999999999999
 21
-3.909999999999997
 31
0.0
  0
LINE
  5
F3E
330
EBB
100
AcDbEntity
  8
TRIM
100
AcDbLine
 10
8.026999999999999
 20
-3.73
 30
0.0
 11
8.026999999999999
 21
-3.107839598078761
 31
0.0
  0
TEXT
  5
F3F
330
EBB
100
AcDbEntity
  8
TRIM
100
AcDbText
 10
8.05476224518456
 20
-3.870518011028342
 30
0.0
 40
0.08
  1
FILE:
  7
SIMPLEX
100
AcDbText
  0
TEXT
  5
F40
330
EBB
100
AcDbEntity
  8
DIM
100
AcDbText
 10
9.719047619047618
 20
-3.97
 30
0.0
 40
0.04
  1
F04-0001-02 REV. 00
 72
     2
 11
10.42
 21
-3.97
 31
0.0
100
AcDbText
  0
LINE
  5
F41
330
EBB
100
AcDbEntity
  8
TRIM
100
AcDbLine
 10
10.42
 20
-3.91
 30
0.0
 11
10.42
 21
-3.759999999999999
 31
0.0
  0
LINE
  5
F42
330
EBB
100
AcDbEntity
  8
TRIM
100
AcDbLine
 10
10.42
 20
-3.729999999999999
 30
0.0
 11
10.42
 21
-3.107839598078762
 31
0.0
  0
ENDBLK
  5
F44
330
EBB
100
AcDbEntity
  8
0
100
AcDbBlockEnd
  0
BLOCK
  5
1059
330
1055
100
AcDbEntity
  8
0
100
AcDbBlockBegin
  2
rvsn_blk
 70
     2
 10
0.0
 20
0.0
 30
0.0
  3
rvsn_blk
  1

  0
ATTDEF
  5
1567
330
1055
100
AcDbEntity
  8
DIM
100
AcDbText
 10
-0.1443252782292399
 20
0.0442732402878181
 30
1.0
 40
0.07
  1

  7
SIMPLEX
100
AcDbAttributeDefinition
  3
REV_#
  2
X
 70
     0
  0
ATTDEF
  5
1568
330
1055
100
AcDbEntity
  8
DIM
100
AcDbText
 10
0.269150253848311
 20
0.0469563354417511
 30
1.0
 40
0.07
  1

  7
SIMPLEX
 72
     1
 11
0.269150253848311
 21
0.0469563354417511
 31
1.0
100
AcDbAttributeDefinition
  3
DATE
  2
DATE
 70
     0
  0
ATTDEF
  5
1569
330
1055
100
AcDbEntity
  8
DIM
100
AcDbText
 10
0.7631729674994113
 20
0.0469563354417511
 30
1.0
 40
0.07
  1

  7
SIMPLEX
 72
     1
 11
0.7631729674994113
 21
0.0469563354417511
 31
1.0
100
AcDbAttributeDefinition
  3
INITIALS
  2
XXX
 70
     0
  0
ENDBLK
  5
105A
330
1055
100
AcDbEntity
  8
0
100
AcDbBlockEnd
  0
BLOCK
  5
106D
330
1066
100
AcDbEntity
  8
0
100
AcDbBlockBegin
  2
rvsn_sym
 70
     2
 10
0.0
 20
0.0
 30
0.0
  3
rvsn_sym
  1

  0
ATTDEF
  5
1067
330
1066
100
AcDbEntity
  8
PART
 62
     2
100
AcDbText
 10
-0.0105718175815284
 20
-0.0211293743372223
 30
0.0
 40
0.07
  1

 72
     1
 11
-0.0105718175815284
 21
-0.0211293743372223
 31
0.0
100
AcDbAttributeDefinition
  3
REVISION_#
  2
#
 70
     0
  0
LINE
  5
1068
330
1066
100
AcDbEntity
  8
NOTES
100
AcDbLine
 10
-0.0640704948746427
 20
-0.0837435829103912
 30
0.0
 11
-0.0640704948746427
 21
0.0662564170896092
 31
0.0
  0
LINE
  5
1069
330
1066
100
AcDbEntity
  8
NOTES
100
AcDbLine
 10
-0.0640704948746427
 20
0.0662564170896092
 30
0.0
 11
0.0172516073044453
 21
0.0662564170896092
 31
0.0
  0
LINE
  5
106A
330
1066
100
AcDbEntity
  8
NOTES
100
AcDbLine
 10
-0.0640704948746427
 20
-0.053743582910391
 30
0.0
 11
0.0172516081509615
 21
-0.053743582910391
 31
0.0
  0
ARC
  5
106B
330
1066
100
AcDbEntity
  8
NOTES
100
AcDbCircle
 10
0.0172516073044453
 20
0.0062564170896091
 30
0.0
 40
0.06
100
AcDbArc
 50
270.0
 51
90.0
  0
LINE
  5
106C
330
1066
100
AcDbEntity
  8
NOTES
100
AcDbLine
 10
0.0172516073044453
 20
-0.053743582910391
 30
0.0
 11
0.0429016660194259
 21
-0.0837435829103912
 31
0.0
  0
ENDBLK
  5
106E
330
1066
100
AcDbEntity
  8
0
100
AcDbBlockEnd
  0
BLOCK
  5
10F7
330
1082
100
AcDbEntity
  8
0
100
AcDbBlockBegin
  2
A$C435B465C
 70
     0
 10
0.0
 20
0.0
 30
0.0
  3
A$C435B465C
  1

  0
LINE
  5
1083
330
1082
100
AcDbEntity
  8
TRIM
100
AcDbLine
 10
10.41999999853406
 20
7.86999999827346
 30
0.0
 11
0.0299999985340644
 21
7.86999999827346
 31
0.0
  0
LINE
  5
1084
330
1082
100
AcDbEntity
  8
TRIM
100
AcDbLine
 10
-0.0000000014659345
 20
7.899999998273461
 30
0.0
 11
10.44999999853406
 21
7.899999998273461
 31
0.0
  0
LINE
  5
1085
330
1082
100
AcDbEntity
  8
TRIM
100
AcDbLine
 10
0.0299999985340644
 20
7.86999999827346
 30
0.0
 11
0.0299999985340652
 21
0.9877074628274646
 31
0.0
  0
LINE
  5
1086
330
1082
100
AcDbEntity
  8
TRIM
100
AcDbLine
 10
-0.0000000014659349
 20
7.899999998273461
 30
0.0
 11
-0.0000000014659349
 21
-0.000000001726538
 31
0.0
  0
LINE
  5
1087
330
1082
100
AcDbEntity
  8
TRIM
100
AcDbLine
 10
10.41999999853406
 20
2.432499998273461
 30
0.0
 11
10.41999999853406
 21
7.869999998273458
 31
0.0
  0
LINE
  5
1088
330
1082
100
AcDbEntity
  8
TRIM
100
AcDbLine
 10
10.44999999853406
 20
-0.0000000017265407
 30
0.0
 11
10.44999999853406
 21
7.899999998273459
 31
0.0
  0
SOLID
  5
1089
330
1082
100
AcDbEntity
  8
SOLID
 62
     1
100
AcDbTrace
 10
8.850645714660327
 20
1.336824719979944
 30
0.0
 11
8.953204583077742
 21
1.529709898068546
 31
0.0
 12
8.844321504076491
 22
1.344775342338473
 32
0.0
 13
8.947606642518891
 23
1.539026435684056
 33
0.0
  0
SOLID
  5
108A
330
1082
100
AcDbEntity
  8
SOLID
 62
     1
100
AcDbTrace
 10
8.743633161575985
 20
1.330656234914544
 30
0.0
 11
8.928899857892716
 21
1.55144848583807
 31
0.0
 12
8.835889223298043
 22
1.355376172149846
 32
0.0
 13
8.94014272177376
 23
1.55144848583807
 33
0.0
  0
SOLID
  5
108B
330
1082
100
AcDbEntity
  8
SOLID
 62
     1
100
AcDbTrace
 10
8.775982480684099
 20
1.551448485838069
 30
0.0
 11
9.123139625704464
 21
1.644468962492971
 31
0.0
 12
9.073679760929408
 22
1.551448485838069
 32
0.0
 13
9.073679760929408
 23
1.551448485838069
 33
0.0
  0
SOLID
  5
108C
330
1082
100
AcDbEntity
  8
SOLID
 62
     1
100
AcDbTrace
 10
8.816585180362723
 20
1.57518819906379
 30
0.0
 11
9.147519865140669
 21
1.663861880597488
 31
0.0
 12
8.834870359939877
 22
1.589732887642179
 32
0.0
 13
9.165805044717822
 23
1.678406569175877
 33
0.0
  0
LINE
  5
108D
330
1082
100
AcDbEntity
  8
TRIM
100
AcDbLine
 10
10.41999999853406
 20
2.402499998273461
 30
0.0
 11
8.026999998534064
 21
2.402499998273462
 31
0.0
  0
TEXT
  5
108E
330
1082
100
AcDbEntity
  8
TRIM
100
AcDbText
 10
8.093749998534065
 20
2.232876334230538
 30
0.0
 40
0.1
  1
TASK FORCE TIPS, INC.
 51
10.0
  7
ROMAND
100
AcDbText
  0
TEXT
  5
108F
330
1082
100
AcDbEntity
  8
TRIM
100
AcDbText
 10
8.128853318574009
 20
1.795200536343402
 30
0.0
 40
0.09
  1
219-462-6161
  7
SIMPLEX
100
AcDbText
  0
TEXT
  5
1090
330
1082
100
AcDbEntity
  8
TRIM
 62
     2
100
AcDbText
 10
8.128853318574009
 20
1.945864616217594
 30
0.0
 40
0.09
  1
VALPARAISO, IN 46383
  7
SIMPLEX
100
AcDbText
  0
TEXT
  5
1091
330
1082
100
AcDbEntity
  8
TRIM
 62
     2
100
AcDbText
 10
8.128853318574009
 20
2.090582801482295
 30
0.0
 40
0.09
  1
2800 E. EVANS AVE.
  7
SIMPLEX
100
AcDbText
  0
LINE
  5
1092
330
1082
100
AcDbEntity
  8
TRIM
100
AcDbLine
 10
10.41999999853406
 20
2.432499998273461
 30
0.0
 11
7.996999998534068
 21
2.432499998273462
 31
0.0
  0
LINE
  5
1093
330
1082
100
AcDbEntity
  8
TRIM
100
AcDbLine
 10
8.026999998534062
 20
1.224315403424987
 30
0.0
 11
8.026999998534064
 21
2.402499998273462
 31
0.0
  0
LINE
  5
1094
330
1082
100
AcDbEntity
  8
TRIM
100
AcDbLine
 10
7.996999998534064
 20
0.6684716413094636
 30
0.0
 11
7.996999998534068
 21
2.432499998273462
 31
0.0
  0
SOLID
  5
1095
330
1082
100
AcDbEntity
  8
SOLID
 62
     1
100
AcDbTrace
 10
8.043289409296239
 20
1.529709898068546
 30
0.0
 11
8.307257975069029
 21
1.529709898068546
 31
0.0
 12
8.114055538205608
 22
1.539026435684056
 32
0.0
 13
8.327237354460679
 23
1.539026435684056
 33
0.0
  0
SOLID
  5
1096
330
1082
100
AcDbEntity
  8
SOLID
 62
     1
100
AcDbTrace
 10
8.043289409296239
 20
1.529709898068546
 30
0.0
 11
8.598232940785159
 21
1.678406569175877
 31
0.0
 12
8.114055538205608
 22
1.539026435684056
 32
0.0
 13
8.579947761208007
 23
1.663861880597489
 33
0.0
  0
SOLID
  5
1097
330
1082
100
AcDbEntity
  8
SOLID
 62
     1
100
AcDbTrace
 10
8.168609830666147
 20
1.330656234914544
 30
0.0
 11
8.353876526982878
 21
1.551448485838069
 31
0.0
 12
8.260865892388205
 22
1.355376172149845
 32
0.0
 13
8.365119390863922
 23
1.551448485838069
 33
0.0
  0
SOLID
  5
1098
330
1082
100
AcDbEntity
  8
SOLID
 62
     1
100
AcDbTrace
 10
8.107639476921409
 20
1.29181383575286
 30
0.0
 11
8.307257975069029
 21
1.529709898068546
 31
0.0
 12
8.133769628526296
 22
1.308460578250724
 32
0.0
 13
8.327237354460679
 23
1.539026435684056
 33
0.0
  0
SOLID
  5
1099
330
1082
100
AcDbEntity
  8
SOLID
 62
     1
100
AcDbTrace
 10
8.269298173166653
 20
1.344775342338473
 30
0.0
 11
8.372583311609053
 21
1.539026435684056
 31
0.0
 12
8.275622383750489
 22
1.336824719979944
 32
0.0
 13
8.378181252167903
 23
1.529709898068546
 33
0.0
  0
SOLID
  5
109A
330
1082
100
AcDbEntity
  8
SOLID
 62
     1
100
AcDbTrace
 10
8.519123822871026
 20
1.446010323780124
 30
0.0
 11
8.389737606638517
 21
1.29181383575286
 31
0.0
 12
8.53420778556849
 22
1.449492730963093
 32
0.0
 13
8.415867758243402
 23
1.308460578250724
 33
0.0
  0
SOLID
  5
109B
330
1082
100
AcDbEntity
  8
SOLID
 62
     1
100
AcDbTrace
 10
8.557720513467595
 20
1.336824719979944
 30
0.0
 11
8.597274694021209
 21
1.411215314162212
 31
0.0
 12
8.551396302883759
 22
1.344775342338473
 32
0.0
 13
8.593127360178915
 23
1.423260046220356
 33
0.0
  0
SOLID
  5
109C
330
1082
100
AcDbEntity
  8
SOLID
 62
     1
100
AcDbTrace
 10
8.902260685370517
 20
1.539026435684056
 30
0.0
 11
8.708792959436136
 21
1.308460578250725
 31
0.0
 12
8.882281305978867
 22
1.529709898068546
 32
0.0
 13
8.682662807831249
 23
1.29181383575286
 33
0.0
  0
SOLID
  5
109D
330
1082
100
AcDbEntity
  8
SOLID
 62
     1
100
AcDbTrace
 10
8.450707960383251
 20
1.330656234914544
 30
0.0
 11
8.554319735831773
 21
1.454135940540385
 31
0.0
 12
8.54296402210531
 22
1.355376172149845
 32
0.0
 13
8.587597581722521
 23
1.439319688964547
 33
0.0
  0
SOLID
  5
109E
330
1082
100
AcDbEntity
  8
SOLID
 62
     1
100
AcDbTrace
 10
8.389737606638517
 20
1.29181383575286
 30
0.0
 11
8.557720513467595
 21
1.336824719979944
 31
0.0
 12
8.415867758243402
 22
1.308460578250724
 32
0.0
 13
8.551396302883759
 23
1.344775342338473
 33
0.0
  0
SOLID
  5
109F
330
1082
100
AcDbEntity
  8
SOLID
 62
     1
100
AcDbTrace
 10
8.107639476921409
 20
1.29181383575286
 30
0.0
 11
8.275622383750489
 21
1.336824719979944
 31
0.0
 12
8.133769628526296
 22
1.308460578250724
 32
0.0
 13
8.269298173166653
 23
1.344775342338473
 33
0.0
  0
SOLID
  5
10A0
330
1082
100
AcDbEntity
  8
SOLID
 62
     1
100
AcDbTrace
 10
8.682662807831249
 20
1.29181383575286
 30
0.0
 11
8.850645714660327
 21
1.336824719979944
 31
0.0
 12
8.708792959436136
 22
1.308460578250725
 32
0.0
 13
8.844321504076491
 23
1.344775342338473
 33
0.0
  0
SOLID
  5
10A1
330
1082
100
AcDbEntity
  8
SOLID
 62
     1
100
AcDbTrace
 10
8.208410376751436
 20
1.551448485838069
 30
0.0
 11
8.555567521771804
 21
1.644468962492971
 31
0.0
 12
8.506107656996745
 22
1.551448485838069
 32
0.0
 13
8.506107656996745
 23
1.551448485838069
 33
0.0
  0
SOLID
  5
10A2
330
1082
100
AcDbEntity
  8
SOLID
 62
     1
100
AcDbTrace
 10
8.372583311609053
 20
1.539026435684056
 30
0.0
 11
8.609335484177783
 21
1.539026435684056
 31
0.0
 12
8.378181252167903
 22
1.529709898068546
 32
0.0
 13
8.589356104786135
 23
1.529709898068546
 33
0.0
  0
SOLID
  5
10A3
330
1082
100
AcDbEntity
  8
SOLID
 62
     1
100
AcDbTrace
 10
8.572168427478533
 20
1.509226421888862
 30
0.0
 11
8.457090830046876
 21
1.473629191620975
 31
0.0
 12
8.577542130581782
 22
1.501136592315402
 32
0.0
 13
8.483530452159383
 23
1.472055733491771
 33
0.0
  0
SOLID
  5
10A4
330
1082
100
AcDbEntity
  8
SOLID
 62
     1
100
AcDbTrace
 10
8.457090830046876
 20
1.473629191620975
 30
0.0
 11
8.519123822871026
 21
1.446010323780124
 31
0.0
 12
8.483530452159383
 22
1.472055733491771
 32
0.0
 13
8.53420778556849
 23
1.449492730963093
 33
0.0
  0
SOLID
  5
10A5
330
1082
100
AcDbEntity
  8
SOLID
 62
     1
100
AcDbTrace
 10
8.492196428717766
 20
1.551448485838069
 30
0.0
 11
8.839353573738133
 21
1.644468962492971
 31
0.0
 12
8.789893708963075
 22
1.551448485838069
 32
0.0
 13
8.789893708963075
 23
1.551448485838069
 33
0.0
  0
SOLID
  5
10A6
330
1082
100
AcDbEntity
  8
SOLID
 62
     1
100
AcDbTrace
 10
8.710751962356022
 20
1.539026435684056
 30
0.0
 11
8.902260685370517
 21
1.539026435684056
 31
0.0
 12
8.71634990291487
 22
1.529709898068546
 32
0.0
 13
8.882281305978867
 23
1.529709898068546
 33
0.0
  0
SOLID
  5
10A7
330
1082
100
AcDbEntity
  8
SOLID
 62
     1
100
AcDbTrace
 10
8.551084307973546
 20
1.589732887642179
 30
0.0
 11
8.88201899275149
 21
1.678406569175877
 31
0.0
 12
8.532799128396392
 22
1.575188199063791
 32
0.0
 13
8.863733813174338
 23
1.663861880597489
 33
0.0
  0
SOLID
  5
10A8
330
1082
100
AcDbEntity
  8
SOLID
 62
     1
100
AcDbTrace
 10
8.532799128396392
 20
1.575188199063791
 30
0.0
 11
8.579947761208007
 21
1.663861880597489
 31
0.0
 12
8.551084307973546
 22
1.589732887642179
 32
0.0
 13
8.598232940785159
 23
1.678406569175877
 33
0.0
  0
SOLID
  5
10A9
330
1082
100
AcDbEntity
  8
SOLID
 62
     1
100
AcDbTrace
 10
8.593127360178915
 20
1.423260046220356
 30
0.0
 11
8.638464998265758
 21
1.403074429219956
 31
0.0
 12
8.597274694021209
 22
1.411215314162212
 32
0.0
 13
8.642612332108052
 23
1.391029697161812
 33
0.0
  0
SOLID
  5
10AA
330
1082
100
AcDbEntity
  8
SOLID
 62
     1
100
AcDbTrace
 10
8.518783281642729
 20
1.4699577893195
 30
0.0
 11
8.687749358113208
 21
1.522224472547337
 31
0.0
 12
8.632935219809365
 22
1.419134071964148
 32
0.0
 13
8.632935219809365
 23
1.419134071964148
 33
0.0
  0
SOLID
  5
10AB
330
1082
100
AcDbEntity
  8
SOLID
 62
     1
100
AcDbTrace
 10
8.584707068052781
 20
1.490350152884122
 30
0.0
 11
8.635974656699984
 21
1.551448485838069
 31
0.0
 12
8.620641230585929
 22
1.501465753893571
 32
0.0
 13
8.647217520581028
 23
1.551448485838069
 33
0.0
  0
SOLID
  5
10AC
330
1082
100
AcDbEntity
  8
SOLID
 62
     1
100
AcDbTrace
 10
8.589356104786135
 20
1.529709898068546
 30
0.0
 11
8.572168427478533
 21
1.509226421888862
 31
0.0
 12
8.609335484177783
 22
1.539026435684056
 32
0.0
 13
8.577542130581782
 23
1.501136592315402
 33
0.0
  0
SOLID
  5
10AD
330
1082
100
AcDbEntity
  8
SOLID
 62
     1
100
AcDbTrace
 10
8.638464998265758
 20
1.403074429219956
 30
0.0
 11
8.710751962356022
 21
1.539026435684056
 31
0.0
 12
8.642612332108052
 22
1.391029697161812
 32
0.0
 13
8.71634990291487
 23
1.529709898068546
 33
0.0
  0
SOLID
  5
10AE
330
1082
100
AcDbEntity
  8
SOLID
 62
     1
100
AcDbTrace
 10
8.645754237745254
 20
1.522236807647912
 30
0.0
 11
8.70003121496035
 21
1.539026435684056
 31
0.0
 12
8.654681441326159
 22
1.539026435684056
 32
0.0
 13
8.654681441326159
 23
1.539026435684056
 33
0.0
  0
SOLID
  5
10AF
330
1082
100
AcDbEntity
  8
SOLID
 62
     1
100
AcDbTrace
 10
8.816585180362723
 20
1.57518819906379
 30
0.0
 11
8.863733813174338
 21
1.663861880597489
 31
0.0
 12
8.834870359939877
 22
1.589732887642179
 32
0.0
 13
8.88201899275149
 23
1.678406569175877
 33
0.0
  0
LINE
  5
10B0
330
1082
100
AcDbEntity
  8
TRIM
100
AcDbLine
 10
10.41999999853406
 20
1.780339596352224
 30
0.0
 11
10.41999999853406
 21
2.402499998273461
 31
0.0
  0
LINE
  5
10B1
330
1082
100
AcDbEntity
  8
TRIM
100
AcDbLine
 10
9.212094455479999
 20
1.750339596352224
 30
0.0
 11
9.212094455480064
 21
0.3543154034249878
 31
0.0
  0
LINE
  5
10B2
330
1082
100
AcDbEntity
  8
TRIM
100
AcDbLine
 10
10.41999999853406
 20
0.3543154034249873
 30
0.0
 11
10.41999999853406
 21
1.750339596352224
 31
0.0
  0
LINE
  5
10B3
330
1082
100
AcDbEntity
  8
TRIM
100
AcDbLine
 10
9.212094455479999
 20
1.750339596352224
 30
0.0
 11
10.41999999853406
 21
1.750339596352224
 31
0.0
  0
LINE
  5
10B4
330
1082
100
AcDbEntity
  8
TRIM
100
AcDbLine
 10
9.182094455479997
 20
1.780339596352224
 30
0.0
 11
10.41999999853406
 21
1.780339596352224
 31
0.0
  0
TEXT
  5
10B5
330
1082
100
AcDbEntity
  8
DIM
100
AcDbText
 10
9.571579664239893
 20
1.615565403424988
 30
0.0
 40
0.09
  1
DATE
 41
0.9
 72
     1
 11
9.714293949954178
 21
1.615565403424988
 31
0.0
100
AcDbText
  0
LINE
  5
10B6
330
1082
100
AcDbEntity
  8
TRIM
100
AcDbLine
 10
9.994468264419049
 20
1.584315403424988
 30
0.0
 11
9.434119635489306
 21
1.584315403424988
 31
0.0
  0
LINE
  5
10B7
330
1082
100
AcDbEntity
  8
TRIM
100
AcDbLine
 10
10.41999999853406
 20
1.404315403424988
 30
0.0
 11
9.212094455480011
 21
1.404315403424988
 31
0.0
  0
LINE
  5
10B8
330
1082
100
AcDbEntity
  8
TRIM
100
AcDbLine
 10
9.434119635489306
 20
1.750339596352224
 30
0.0
 11
9.434119635489302
 21
0.6843154034249875
 31
0.0
  0
LINE
  5
10B9
330
1082
100
AcDbEntity
  8
TRIM
100
AcDbLine
 10
9.182094455479997
 20
1.780339596352224
 30
0.0
 11
9.182094455480022
 21
1.224315403424987
 31
0.0
  0
TEXT
  5
10BA
330
1082
100
AcDbEntity
  8
DIM
100
AcDbText
 10
9.227107045484656
 20
1.615565403424988
 30
0.0
 40
0.09
  1
REV
 41
0.8
 72
     1
 11
9.323107045484656
 21
1.615565403424988
 31
0.0
100
AcDbText
  0
LINE
  5
10BB
330
1082
100
AcDbEntity
  8
TRIM
100
AcDbLine
 10
9.434119635489306
 20
1.584315403424988
 30
0.0
 11
9.212094455480006
 21
1.584315403424988
 31
0.0
  0
SOLID
  5
10BC
330
1082
100
AcDbEntity
  8
SOLID
 62
     1
100
AcDbTrace
 10
9.086741622233388
 20
1.529709898068546
 30
0.0
 11
9.165805044717822
 21
1.678406569175877
 31
0.0
 12
9.081143681674539
 22
1.539026435684056
 32
0.0
 13
9.147519865140669
 23
1.663861880597488
 33
0.0
  0
SOLID
  5
10BD
330
1082
100
AcDbEntity
  8
SOLID
 62
     1
100
AcDbTrace
 10
8.953204583077742
 20
1.529709898068546
 30
0.0
 11
9.086741622233388
 21
1.529709898068546
 31
0.0
 12
8.947606642518891
 22
1.539026435684056
 32
0.0
 13
9.081143681674539
 23
1.539026435684056
 33
0.0
  0
LINE
  5
10BE
330
1082
100
AcDbEntity
  8
TRIM
100
AcDbLine
 10
9.994468264419047
 20
1.750339596352224
 30
0.0
 11
9.994468264419047
 21
0.684315403424987
 31
0.0
  0
TEXT
  5
10BF
330
1082
100
AcDbEntity
  8
DIM
100
AcDbText
 10
10.0105817160691
 20
1.615565403424988
 30
0.0
 40
0.09
  1
INITIALS
 41
0.8
 72
     1
 11
10.21115314464053
 21
1.615565403424988
 31
0.0
100
AcDbText
  0
LINE
  5
10C0
330
1082
100
AcDbEntity
  8
TRIM
100
AcDbLine
 10
10.41999999853406
 20
1.584315403424988
 30
0.0
 11
9.994468264419049
 21
1.584315403424988
 31
0.0
  0
LINE
  5
10C1
330
1082
100
AcDbEntity
  8
TRIM
100
AcDbLine
 10
0.0299999985341133
 20
0.3492358197914696
 30
0.0
 11
7.996999998534064
 21
0.3492358197914633
 31
0.0
  0
LINE
  5
10C2
330
1082
100
AcDbEntity
  8
TRIM
100
AcDbLine
 10
0.0299999985340644
 20
0.6384716413094696
 30
0.0
 11
7.996999998534064
 21
0.6384716413094634
 31
0.0
  0
LINE
  5
10C3
330
1082
100
AcDbEntity
  8
TRIM
100
AcDbLine
 10
-0.0000000014659349
 20
-0.000000001726538
 30
0.0
 11
10.44999999853406
 21
-0.0000000017265371
 31
0.0
  0
LINE
  5
10C4
330
1082
100
AcDbEntity
  8
TRIM
100
AcDbLine
 10
0.0299999985340644
 20
0.3192358197914693
 30
0.0
 11
7.996999998534064
 21
0.3192358197914626
 31
0.0
  0
LINE
  5
10C5
330
1082
100
AcDbEntity
  8
TRIM
100
AcDbLine
 10
0.0299999985341133
 20
0.0299999982734693
 30
0.0
 11
7.996999998534064
 21
0.0299999982734627
 31
0.0
  0
LINE
  5
10C6
330
1082
100
AcDbEntity
  8
TRIM
100
AcDbLine
 10
0.0299999985340652
 20
0.9877074628274646
 30
0.0
 11
4.123749998534062
 21
0.9877074628274638
 31
0.0
  0
LINE
  5
10C7
330
1082
100
AcDbEntity
  8
TRIM
100
AcDbLine
 10
0.0299999985341142
 20
0.9577074628274647
 30
0.0
 11
3.312499998534065
 21
0.9577074628274647
 31
0.0
  0
LINE
  5
10C8
330
1082
100
AcDbEntity
  8
TRIM
100
AcDbLine
 10
0.0299999985340644
 20
0.6684716413094645
 30
0.0
 11
3.312499998534113
 21
0.6684716413094645
 31
0.0
  0
TEXT
  5
10C9
330
1082
100
AcDbEntity
  8
TRIM
100
AcDbText
 10
0.1075473542991792
 20
0.4200287859488796
 30
0.0
 40
0.14
  1
DESCRIPTION:
 41
0.9
  7
SIMPLEX
100
AcDbText
  0
TEXT
  5
10CA
330
1082
100
AcDbEntity
  8
TRIM
100
AcDbText
 10
0.1075473542991792
 20
0.1075287859488796
 30
0.0
 40
0.14
  1
EXTRA DESC:
 41
0.9
  7
SIMPLEX
100
AcDbText
  0
TEXT
  5
10CB
330
1082
100
AcDbEntity
  8
TRIM
100
AcDbText
 10
0.1101805216547635
 20
0.7431394110287762
 30
0.0
 40
0.14
  1
PART NUMBER:
 41
0.8
  7
SIMPLEX
100
AcDbText
  0
LINE
  5
10CC
330
1082
100
AcDbEntity
  8
TRIM
100
AcDbLine
 10
0.0299999985340644
 20
0.6384716413094696
 30
0.0
 11
0.0299999985341133
 21
0.3492358197914696
 31
0.0
  0
LINE
  5
10CD
330
1082
100
AcDbEntity
  8
TRIM
100
AcDbLine
 10
0.0299999985340644
 20
0.3192358197914693
 30
0.0
 11
0.0299999985341133
 21
0.0299999982734693
 31
0.0
  0
LINE
  5
10CE
330
1082
100
AcDbEntity
  8
TRIM
100
AcDbLine
 10
0.0299999985340653
 20
0.9577074628274653
 30
0.0
 11
0.0299999985340644
 21
0.6684716413094645
 31
0.0
  0
LINE
  5
10CF
330
1082
100
AcDbEntity
  8
TRIM
100
AcDbLine
 10
3.342499998534066
 20
0.9577074628274647
 30
0.0
 11
4.093749998534065
 21
0.9577074628274647
 31
0.0
  0
TEXT
  5
10D0
330
1082
100
AcDbEntity
  8
DIM
 62
     1
100
AcDbText
 10
3.539702379486445
 20
0.8537499982734622
 30
0.0
 40
0.08
  1
SHEET
 72
     1
 11
3.718749998534065
 21
0.8537499982734622
 31
0.0
100
AcDbText
  0
LINE
  5
10D1
330
1082
100
AcDbEntity
  8
TRIM
100
AcDbLine
 10
3.342499998534066
 20
0.9577074628274647
 30
0.0
 11
3.342499998534113
 21
0.6684716413094672
 31
0.0
  0
LINE
  5
10D2
330
1082
100
AcDbEntity
  8
TRIM
100
AcDbLine
 10
3.312499998534065
 20
0.9577074628274644
 30
0.0
 11
3.312499998534113
 21
0.6684716413094645
 31
0.0
  0
LINE
  5
10D3
330
1082
100
AcDbEntity
  8
TRIM
100
AcDbLine
 10
4.123749998534062
 20
0.9877074628274638
 30
0.0
 11
4.123749998534114
 21
0.6684716413094672
 31
0.0
  0
LINE
  5
10D4
330
1082
100
AcDbEntity
  8
TRIM
100
AcDbLine
 10
4.093749998534065
 20
0.9577074628274647
 30
0.0
 11
4.093749998534113
 21
0.6684716413094645
 31
0.0
  0
LINE
  5
10D5
330
1082
100
AcDbEntity
  8
TRIM
100
AcDbLine
 10
4.123749998534114
 20
0.6684716413094663
 30
0.0
 11
7.996999998534064
 21
0.6684716413094632
 31
0.0
  0
LINE
  5
10D6
330
1082
100
AcDbEntity
  8
TRIM
100
AcDbLine
 10
9.182094455480024
 20
1.224315403424987
 30
0.0
 11
8.026999998534062
 21
1.224315403424987
 31
0.0
  0
TEXT
  5
10D7
330
1082
100
AcDbEntity
  8
DIM
100
AcDbText
 10
8.043249998534063
 20
0.2653392262302923
 30
0.0
 40
0.056
  1
DIMENSIONS IN 'INCHES' UNLESS SPECIFIED OTHERWISE
100
AcDbText
  0
LINE
  5
10D8
330
1082
100
AcDbEntity
  8
TRIM
100
AcDbLine
 10
9.182094455480005
 20
1.044315403424988
 30
0.0
 11
8.026999998534051
 21
1.044315403424987
 31
0.0
  0
LINE
  5
10D9
330
1082
100
AcDbEntity
  8
TRIM
100
AcDbLine
 10
9.182094455480024
 20
1.194315403424987
 30
0.0
 11
8.026999998534066
 21
1.194315403424987
 31
0.0
  0
LINE
  5
10DA
330
1082
100
AcDbEntity
  8
TRIM
100
AcDbLine
 10
8.026999998534064
 20
0.0749999982734631
 30
0.0
 11
10.41999999853406
 21
0.0749999982734622
 31
0.0
  0
LINE
  5
10DB
330
1082
100
AcDbEntity
  8
TRIM
100
AcDbLine
 10
8.026999998534064
 20
0.2249999982734629
 30
0.0
 11
10.41999999853406
 21
0.2249999982734625
 31
0.0
  0
TEXT
  5
10DC
330
1082
100
AcDbEntity
  8
TRIM
100
AcDbText
 10
8.074563651603105
 20
0.5810145276027239
 30
0.0
 40
0.07
  1
PRINT APPROVED
 41
1.058889550608496
  7
SIMPLEX
 72
     5
 11
9.02403461531539
 21
0.5810145276027239
 31
0.0
100
AcDbText
  0
LINE
  5
10DD
330
1082
100
AcDbEntity
  8
TRIM
100
AcDbLine
 10
9.182094455480063
 20
0.3543154034249878
 30
0.0
 11
8.026999998534064
 21
0.3543154034249878
 31
0.0
  0
LINE
  5
10DE
330
1082
100
AcDbEntity
  8
TRIM
 62
     2
100
AcDbLine
 10
9.182094455480012
 20
0.8643154034249874
 30
0.0
 11
8.026999998534064
 21
0.8643154034249874
 31
0.0
  0
LINE
  5
10DF
330
1082
100
AcDbEntity
  8
TRIM
100
AcDbLine
 10
9.182094455480017
 20
0.6843154034249875
 30
0.0
 11
8.026999998534064
 21
0.684315403424987
 31
0.0
  0
LINE
  5
10E0
330
1082
100
AcDbEntity
  8
TRIM
 62
     2
100
AcDbLine
 10
9.182094455480024
 20
0.5457609724770878
 30
0.0
 11
8.026999998534064
 21
0.5457609724770878
 31
0.0
  0
LINE
  5
10E1
330
1082
100
AcDbEntity
  8
TRIM
100
AcDbLine
 10
9.182094455480031
 20
0.3543154034249873
 30
0.0
 11
8.026999998534064
 21
0.3543154034249873
 31
0.0
  0
LINE
  5
10E2
330
1082
100
AcDbEntity
  8
TRIM
100
AcDbLine
 10
7.996999998534064
 20
0.3492358197914598
 30
0.0
 11
7.996999998534064
 21
0.6384716413094598
 31
0.0
  0
LINE
  5
10E3
330
1082
100
AcDbEntity
  8
TRIM
100
AcDbLine
 10
8.026999998534064
 20
0.3543154034249878
 30
0.0
 11
8.026999998534064
 21
0.864315403424988
 31
0.0
  0
TEXT
  5
10E4
330
1082
100
AcDbEntity
  8
TRIM
100
AcDbText
 10
8.062499998534065
 20
0.1099999982734623
 30
0.0
 40
0.08
  1
FILE:
  7
SIMPLEX
100
AcDbText
  0
LINE
  5
10E5
330
1082
100
AcDbEntity
  8
TRIM
100
AcDbLine
 10
8.026999998534064
 20
0.0749999982734653
 30
0.0
 11
8.099999998534064
 21
0.0749999982734648
 31
0.0
  0
LINE
  5
10E6
330
1082
100
AcDbEntity
  8
TRIM
100
AcDbLine
 10
8.026999998534064
 20
0.0749999982734622
 30
0.0
 11
8.026999998534064
 21
0.2249999982734629
 31
0.0
  0
LINE
  5
10E7
330
1082
100
AcDbEntity
  8
TRIM
100
AcDbLine
 10
7.996999998534064
 20
0.0299999982734596
 30
0.0
 11
7.996999998534064
 21
0.3192358197914595
 31
0.0
  0
TEXT
  5
10E8
330
1082
100
AcDbEntity
  8
TRIM
100
AcDbText
 10
8.074563651603092
 20
0.8995689585506237
 30
0.0
 40
0.07
  1
PRINT DRAWN
 41
1.047995828933662
  7
SIMPLEX
 72
     5
 11
8.811654051286435
 21
0.8995689585506237
 31
0.0
100
AcDbText
  0
TEXT
  5
10E9
330
1082
100
AcDbEntity
  8
TRIM
100
AcDbText
 10
8.074583587926003
 20
1.067921744520258
 30
0.0
 40
0.09
  1
SCALE:
  7
SIMPLEX
100
AcDbText
  0
LINE
  5
10EA
330
1082
100
AcDbEntity
  8
TRIM
100
AcDbLine
 10
8.026999998534064
 20
0.864315403424988
 30
0.0
 11
8.026999998534064
 21
1.194315403424987
 31
0.0
  0
LINE
  5
10EB
330
1082
100
AcDbEntity
  8
TRIM
100
AcDbLine
 10
10.41999999853406
 20
0.3543154034249873
 30
0.0
 11
9.212094455480064
 21
0.3543154034249878
 31
0.0
  0
LINE
  5
10EC
330
1082
100
AcDbEntity
  8
TRIM
100
AcDbLine
 10
10.41999999853406
 20
0.0749999982734622
 30
0.0
 11
10.41999999853406
 21
0.2249999982734625
 31
0.0
  0
LINE
  5
10ED
330
1082
100
AcDbEntity
  8
TRIM
100
AcDbLine
 10
10.41999999853406
 20
0.684315403424987
 30
0.0
 11
9.212094455480039
 21
0.6843154034249875
 31
0.0
  0
LINE
  5
10EE
330
1082
100
AcDbEntity
  8
TRIM
100
AcDbLine
 10
10.41999999853406
 20
0.8643154034249874
 30
0.0
 11
9.212094455480032
 21
0.8643154034249874
 31
0.0
  0
LINE
  5
10EF
330
1082
100
AcDbEntity
  8
TRIM
100
AcDbLine
 10
10.41999999853406
 20
1.044315403424987
 30
0.0
 11
9.212094455480025
 21
1.044315403424988
 31
0.0
  0
LINE
  5
10F0
330
1082
100
AcDbEntity
  8
TRIM
100
AcDbLine
 10
10.41999999853406
 20
1.224315403424987
 30
0.0
 11
9.212094455480018
 21
1.224315403424987
 31
0.0
  0
TEXT
  5
10F1
330
1082
100
AcDbEntity
  8
TRIM
100
AcDbText
 10
9.277645854177304
 20
0.5810145276027239
 30
0.0
 40
0.07
  1
DESIGN ENGINEER
  7
SIMPLEX
100
AcDbText
  0
LINE
  5
10F2
330
1082
100
AcDbEntity
  8
TRIM
 62
     2
100
AcDbLine
 10
10.41418891242604
 20
0.5457609724770874
 30
0.0
 11
9.212094455480064
 21
0.5457609724770878
 31
0.0
  0
LINE
  5
10F3
330
1082
100
AcDbEntity
  8
TRIM
100
AcDbLine
 10
9.182094455480024
 20
1.194315403424987
 30
0.0
 11
9.182094455480063
 21
0.3543154034249878
 31
0.0
  0
LINE
  5
10F4
330
1082
100
AcDbEntity
  8
TRIM
 62
     2
100
AcDbLine
 10
8.736598446570452
 20
0.5457609724770878
 30
0.0
 11
8.73659844657045
 21
0.3543154034249878
 31
0.0
  0
LINE
  5
10F5
330
1082
100
AcDbEntity
  8
TRIM
 62
     2
100
AcDbLine
 10
8.736598446570452
 20
0.8643154034249874
 30
0.0
 11
8.736598446570452
 21
0.6843154034249875
 31
0.0
  0
LINE
  5
10F6
330
1082
100
AcDbEntity
  8
TRIM
100
AcDbLine
 10
3.342499998534113
 20
0.6684716413094672
 30
0.0
 11
4.093749998534113
 21
0.6684716413094663
 31
0.0
  0
ENDBLK
  5
10F8
330
1082
100
AcDbEntity
  8
0
100
AcDbBlockEnd
  0
BLOCK
  5
10FB
330
10F9
100
AcDbEntity
  8
0
100
AcDbBlockBegin
  2
A$C4FB65283
 70
     2
 10
0.0
 20
0.0
 30
0.0
  3
A$C4FB65283
  1

  0
ATTDEF
  5
10FA
330
10F9
100
AcDbEntity
  8
DIM
100
AcDbText
 10
0.0000000025669991
 20
0.0433333427455174
 30
0.0
 40
0.13
  1

  7
SIMPLEX
100
AcDbAttributeDefinition
  3
PART_#
  2
PART_#
 70
     0
  0
ENDBLK
  5
10FC
330
10F9
100
AcDbEntity
  8
0
100
AcDbBlockEnd
  0
BLOCK
  5
10FF
330
10FD
100
AcDbEntity
  8
0
100
AcDbBlockBegin
  2
A$C2BBE0097
 70
     2
 10
0.0
 20
0.0
 30
0.0
  3
A$C2BBE0097
  1

  0
ATTDEF
  5
10FE
330
10FD
100
AcDbEntity
  8
DIM
100
AcDbText
 10
0.0000000025669991
 20
0.0123809372330444
 30
0.0
 40
0.13
  1

  7
SIMPLEX
100
AcDbAttributeDefinition
  3
PART_DESCRIPTION
  2
PART_DESCRIPTION
 70
     0
  0
ENDBLK
  5
1100
330
10FD
100
AcDbEntity
  8
0
100
AcDbBlockEnd
  0
BLOCK
  5
1103
330
1101
100
AcDbEntity
  8
0
100
AcDbBlockBegin
  2
A$C10236829
 70
     2
 10
0.0
 20
0.0
 30
0.0
  3
A$C10236829
  1

  0
ATTDEF
  5
1102
330
1101
100
AcDbEntity
  8
DIM
100
AcDbText
 10
0.0000000025669991
 20
0.0123809528212267
 30
0.0
 40
0.13
  1

  7
SIMPLEX
100
AcDbAttributeDefinition
  3
EXTRA_DESCRIPTION
  2
EXTRA_DESCRIPTION
 70
     0
  0
ENDBLK
  5
1104
330
1101
100
AcDbEntity
  8
0
100
AcDbBlockEnd
  0
BLOCK
  5
1107
330
1105
100
AcDbEntity
  8
0
100
AcDbBlockBegin
  2
A$C794932C0
 70
     2
 10
0.0
 20
0.0
 30
0.0
  3
A$C794932C0
  1

  0
ATTDEF
  5
1106
330
1105
100
AcDbEntity
  8
DIM
100
AcDbText
 10
0.2238095347306626
 20
0.0499999881906419
 30
0.0
 40
0.1
  1

  7
SIMPLEX
 72
     4
 11
0.2238095347306626
 21
0.0499999881906419
 31
0.0
100
AcDbAttributeDefinition
  3
SHEET
  2
SHEET
 70
     0
  0
ENDBLK
  5
1108
330
1105
100
AcDbEntity
  8
0
100
AcDbBlockEnd
  0
BLOCK
  5
1185
330
1109
100
AcDbEntity
  8
0
100
AcDbBlockBegin
  2
TEST
 70
     2
 10
0.0
 20
0.0
 30
0.0
  3
TEST
  1

  0
INSERT
  5
110A
330
1109
100
AcDbEntity
  8
DIM
100
AcDbBlockReference
 66
     1
  2
A$C4FB65283
 10
0.9375
 20
-0.9375
 30
0.0
  0
ATTRIB
  5
110B
330
110A
100
AcDbEntity
  8
DIM
100
AcDbText
 10
0.937500002566999
 20
-0.8941666572544825
 30
0.0
 40
0.13
  1

  7
SIMPLEX
100
AcDbAttribute
  2
PART_#
 70
     0
  0
SEQEND
  5
110C
330
110A
100
AcDbEntity
  8
DIM
  0
LINE
  5
110D
330
1109
100
AcDbEntity
  8
TRIM
100
AcDbLine
 10
10.66999999853406
 20
8.11999999827346
 30
0.0
 11
0.2799999985340644
 21
8.11999999827346
 31
0.0
  0
LINE
  5
110E
330
1109
100
AcDbEntity
  8
TRIM
100
AcDbLine
 10
0.2499999985340655
 20
8.149999998273461
 30
0.0
 11
10.69999999853406
 21
8.149999998273461
 31
0.0
  0
LINE
  5
110F
330
1109
100
AcDbEntity
  8
TRIM
100
AcDbLine
 10
0.2799999985340644
 20
8.11999999827346
 30
0.0
 11
0.2799999985340651
 21
1.237707462827464
 31
0.0
  0
LINE
  5
1110
330
1109
100
AcDbEntity
  8
TRIM
100
AcDbLine
 10
0.2499999985340651
 20
8.149999998273461
 30
0.0
 11
0.2499999985340651
 21
0.249999998273462
 31
0.0
  0
LINE
  5
1111
330
1109
100
AcDbEntity
  8
TRIM
100
AcDbLine
 10
10.66999999853406
 20
2.682499998273461
 30
0.0
 11
10.66999999853406
 21
8.119999998273458
 31
0.0
  0
LINE
  5
1112
330
1109
100
AcDbEntity
  8
TRIM
100
AcDbLine
 10
10.69999999853406
 20
0.2499999982734593
 30
0.0
 11
10.69999999853406
 21
8.149999998273459
 31
0.0
  0
SOLID
  5
1113
330
1109
100
AcDbEntity
  8
SOLID
 62
     1
100
AcDbTrace
 10
9.100645714660327
 20
1.586824719979944
 30
0.0
 11
9.203204583077742
 21
1.779709898068546
 31
0.0
 12
9.094321504076491
 22
1.594775342338473
 32
0.0
 13
9.197606642518891
 23
1.789026435684056
 33
0.0
  0
SOLID
  5
1114
330
1109
100
AcDbEntity
  8
SOLID
 62
     1
100
AcDbTrace
 10
8.993633161575985
 20
1.580656234914544
 30
0.0
 11
9.178899857892716
 21
1.80144848583807
 31
0.0
 12
9.085889223298043
 22
1.605376172149846
 32
0.0
 13
9.19014272177376
 23
1.80144848583807
 33
0.0
  0
SOLID
  5
1115
330
1109
100
AcDbEntity
  8
SOLID
 62
     1
100
AcDbTrace
 10
9.025982480684099
 20
1.801448485838069
 30
0.0
 11
9.373139625704464
 21
1.894468962492971
 31
0.0
 12
9.323679760929408
 22
1.801448485838069
 32
0.0
 13
9.323679760929408
 23
1.801448485838069
 33
0.0
  0
SOLID
  5
1116
330
1109
100
AcDbEntity
  8
SOLID
 62
     1
100
AcDbTrace
 10
9.066585180362723
 20
1.82518819906379
 30
0.0
 11
9.397519865140669
 21
1.913861880597488
 31
0.0
 12
9.084870359939877
 22
1.839732887642179
 32
0.0
 13
9.415805044717822
 23
1.928406569175877
 33
0.0
  0
LINE
  5
1117
330
1109
100
AcDbEntity
  8
TRIM
100
AcDbLine
 10
10.66999999853406
 20
2.652499998273461
 30
0.0
 11
8.276999998534064
 21
2.652499998273462
 31
0.0
  0
TEXT
  5
1118
330
1109
100
AcDbEntity
  8
TRIM
100
AcDbText
 10
8.343749998534065
 20
2.482876334230538
 30
0.0
 40
0.1
  1
TASK FORCE TIPS, INC.
 51
10.0
  7
ROMAND
100
AcDbText
  0
TEXT
  5
1119
330
1109
100
AcDbEntity
  8
TRIM
100
AcDbText
 10
8.378853318574009
 20
2.045200536343402
 30
0.0
 40
0.09
  1
219-462-6161
  7
SIMPLEX
100
AcDbText
  0
TEXT
  5
111A
330
1109
100
AcDbEntity
  8
TRIM
 62
     2
100
AcDbText
 10
8.378853318574009
 20
2.195864616217594
 30
0.0
 40
0.09
  1
VALPARAISO, IN 46383
  7
SIMPLEX
100
AcDbText
  0
TEXT
  5
111B
330
1109
100
AcDbEntity
  8
TRIM
 62
     2
100
AcDbText
 10
8.378853318574009
 20
2.340582801482295
 30
0.0
 40
0.09
  1
2800 E. EVANS AVE.
  7
SIMPLEX
100
AcDbText
  0
LINE
  5
111C
330
1109
100
AcDbEntity
  8
TRIM
100
AcDbLine
 10
10.66999999853406
 20
2.682499998273461
 30
0.0
 11
8.246999998534068
 21
2.682499998273462
 31
0.0
  0
LINE
  5
111D
330
1109
100
AcDbEntity
  8
TRIM
100
AcDbLine
 10
8.276999998534062
 20
1.474315403424987
 30
0.0
 11
8.276999998534064
 21
2.652499998273462
 31
0.0
  0
LINE
  5
111E
330
1109
100
AcDbEntity
  8
TRIM
100
AcDbLine
 10
8.246999998534064
 20
0.9184716413094635
 30
0.0
 11
8.246999998534068
 21
2.682499998273462
 31
0.0
  0
SOLID
  5
111F
330
1109
100
AcDbEntity
  8
SOLID
 62
     1
100
AcDbTrace
 10
8.293289409296239
 20
1.779709898068546
 30
0.0
 11
8.557257975069029
 21
1.779709898068546
 31
0.0
 12
8.364055538205608
 22
1.789026435684056
 32
0.0
 13
8.577237354460679
 23
1.789026435684056
 33
0.0
  0
SOLID
  5
1120
330
1109
100
AcDbEntity
  8
SOLID
 62
     1
100
AcDbTrace
 10
8.293289409296239
 20
1.779709898068546
 30
0.0
 11
8.848232940785159
 21
1.928406569175877
 31
0.0
 12
8.364055538205608
 22
1.789026435684056
 32
0.0
 13
8.829947761208007
 23
1.913861880597489
 33
0.0
  0
SOLID
  5
1121
330
1109
100
AcDbEntity
  8
SOLID
 62
     1
100
AcDbTrace
 10
8.418609830666147
 20
1.580656234914544
 30
0.0
 11
8.603876526982878
 21
1.801448485838069
 31
0.0
 12
8.510865892388205
 22
1.605376172149845
 32
0.0
 13
8.615119390863922
 23
1.801448485838069
 33
0.0
  0
SOLID
  5
1122
330
1109
100
AcDbEntity
  8
SOLID
 62
     1
100
AcDbTrace
 10
8.357639476921409
 20
1.54181383575286
 30
0.0
 11
8.557257975069029
 21
1.779709898068546
 31
0.0
 12
8.383769628526296
 22
1.558460578250724
 32
0.0
 13
8.577237354460679
 23
1.789026435684056
 33
0.0
  0
SOLID
  5
1123
330
1109
100
AcDbEntity
  8
SOLID
 62
     1
100
AcDbTrace
 10
8.519298173166653
 20
1.594775342338473
 30
0.0
 11
8.622583311609053
 21
1.789026435684056
 31
0.0
 12
8.525622383750489
 22
1.586824719979944
 32
0.0
 13
8.628181252167903
 23
1.779709898068546
 33
0.0
  0
SOLID
  5
1124
330
1109
100
AcDbEntity
  8
SOLID
 62
     1
100
AcDbTrace
 10
8.769123822871026
 20
1.696010323780124
 30
0.0
 11
8.639737606638517
 21
1.54181383575286
 31
0.0
 12
8.78420778556849
 22
1.699492730963093
 32
0.0
 13
8.665867758243402
 23
1.558460578250724
 33
0.0
  0
SOLID
  5
1125
330
1109
100
AcDbEntity
  8
SOLID
 62
     1
100
AcDbTrace
 10
8.807720513467595
 20
1.586824719979944
 30
0.0
 11
8.847274694021209
 21
1.661215314162212
 31
0.0
 12
8.801396302883759
 22
1.594775342338473
 32
0.0
 13
8.843127360178915
 23
1.673260046220356
 33
0.0
  0
SOLID
  5
1126
330
1109
100
AcDbEntity
  8
SOLID
 62
     1
100
AcDbTrace
 10
9.152260685370517
 20
1.789026435684056
 30
0.0
 11
8.958792959436136
 21
1.558460578250725
 31
0.0
 12
9.132281305978867
 22
1.779709898068546
 32
0.0
 13
8.932662807831249
 23
1.54181383575286
 33
0.0
  0
SOLID
  5
1127
330
1109
100
AcDbEntity
  8
SOLID
 62
     1
100
AcDbTrace
 10
8.700707960383251
 20
1.580656234914544
 30
0.0
 11
8.804319735831773
 21
1.704135940540385
 31
0.0
 12
8.79296402210531
 22
1.605376172149845
 32
0.0
 13
8.837597581722521
 23
1.689319688964547
 33
0.0
  0
SOLID
  5
1128
330
1109
100
AcDbEntity
  8
SOLID
 62
     1
100
AcDbTrace
 10
8.639737606638517
 20
1.54181383575286
 30
0.0
 11
8.807720513467595
 21
1.586824719979944
 31
0.0
 12
8.665867758243402
 22
1.558460578250724
 32
0.0
 13
8.801396302883759
 23
1.594775342338473
 33
0.0
  0
SOLID
  5
1129
330
1109
100
AcDbEntity
  8
SOLID
 62
     1
100
AcDbTrace
 10
8.357639476921409
 20
1.54181383575286
 30
0.0
 11
8.525622383750489
 21
1.586824719979944
 31
0.0
 12
8.383769628526296
 22
1.558460578250724
 32
0.0
 13
8.519298173166653
 23
1.594775342338473
 33
0.0
  0
SOLID
  5
112A
330
1109
100
AcDbEntity
  8
SOLID
 62
     1
100
AcDbTrace
 10
8.932662807831249
 20
1.54181383575286
 30
0.0
 11
9.100645714660327
 21
1.586824719979944
 31
0.0
 12
8.958792959436136
 22
1.558460578250725
 32
0.0
 13
9.094321504076491
 23
1.594775342338473
 33
0.0
  0
SOLID
  5
112B
330
1109
100
AcDbEntity
  8
SOLID
 62
     1
100
AcDbTrace
 10
8.458410376751436
 20
1.801448485838069
 30
0.0
 11
8.805567521771804
 21
1.894468962492971
 31
0.0
 12
8.756107656996745
 22
1.801448485838069
 32
0.0
 13
8.756107656996745
 23
1.801448485838069
 33
0.0
  0
SOLID
  5
112C
330
1109
100
AcDbEntity
  8
SOLID
 62
     1
100
AcDbTrace
 10
8.622583311609053
 20
1.789026435684056
 30
0.0
 11
8.859335484177783
 21
1.789026435684056
 31
0.0
 12
8.628181252167903
 22
1.779709898068546
 32
0.0
 13
8.839356104786135
 23
1.779709898068546
 33
0.0
  0
SOLID
  5
112D
330
1109
100
AcDbEntity
  8
SOLID
 62
     1
100
AcDbTrace
 10
8.822168427478533
 20
1.759226421888862
 30
0.0
 11
8.707090830046876
 21
1.723629191620975
 31
0.0
 12
8.827542130581782
 22
1.751136592315402
 32
0.0
 13
8.733530452159383
 23
1.722055733491771
 33
0.0
  0
SOLID
  5
112E
330
1109
100
AcDbEntity
  8
SOLID
 62
     1
100
AcDbTrace
 10
8.707090830046876
 20
1.723629191620975
 30
0.0
 11
8.769123822871026
 21
1.696010323780124
 31
0.0
 12
8.733530452159383
 22
1.722055733491771
 32
0.0
 13
8.78420778556849
 23
1.699492730963093
 33
0.0
  0
SOLID
  5
112F
330
1109
100
AcDbEntity
  8
SOLID
 62
     1
100
AcDbTrace
 10
8.742196428717766
 20
1.801448485838069
 30
0.0
 11
9.089353573738133
 21
1.894468962492971
 31
0.0
 12
9.039893708963075
 22
1.801448485838069
 32
0.0
 13
9.039893708963075
 23
1.801448485838069
 33
0.0
  0
SOLID
  5
1130
330
1109
100
AcDbEntity
  8
SOLID
 62
     1
100
AcDbTrace
 10
8.960751962356022
 20
1.789026435684056
 30
0.0
 11
9.152260685370517
 21
1.789026435684056
 31
0.0
 12
8.96634990291487
 22
1.779709898068546
 32
0.0
 13
9.132281305978867
 23
1.779709898068546
 33
0.0
  0
SOLID
  5
1131
330
1109
100
AcDbEntity
  8
SOLID
 62
     1
100
AcDbTrace
 10
8.801084307973546
 20
1.839732887642179
 30
0.0
 11
9.13201899275149
 21
1.928406569175877
 31
0.0
 12
8.782799128396392
 22
1.825188199063791
 32
0.0
 13
9.113733813174338
 23
1.913861880597489
 33
0.0
  0
SOLID
  5
1132
330
1109
100
AcDbEntity
  8
SOLID
 62
     1
100
AcDbTrace
 10
8.782799128396392
 20
1.825188199063791
 30
0.0
 11
8.829947761208007
 21
1.913861880597489
 31
0.0
 12
8.801084307973546
 22
1.839732887642179
 32
0.0
 13
8.848232940785159
 23
1.928406569175877
 33
0.0
  0
SOLID
  5
1133
330
1109
100
AcDbEntity
  8
SOLID
 62
     1
100
AcDbTrace
 10
8.843127360178915
 20
1.673260046220356
 30
0.0
 11
8.888464998265758
 21
1.653074429219956
 31
0.0
 12
8.847274694021209
 22
1.661215314162212
 32
0.0
 13
8.892612332108052
 23
1.641029697161812
 33
0.0
  0
SOLID
  5
1134
330
1109
100
AcDbEntity
  8
SOLID
 62
     1
100
AcDbTrace
 10
8.768783281642729
 20
1.7199577893195
 30
0.0
 11
8.937749358113208
 21
1.772224472547337
 31
0.0
 12
8.882935219809365
 22
1.669134071964148
 32
0.0
 13
8.882935219809365
 23
1.669134071964148
 33
0.0
  0
SOLID
  5
1135
330
1109
100
AcDbEntity
  8
SOLID
 62
     1
100
AcDbTrace
 10
8.834707068052781
 20
1.740350152884122
 30
0.0
 11
8.885974656699984
 21
1.801448485838069
 31
0.0
 12
8.870641230585929
 22
1.751465753893571
 32
0.0
 13
8.897217520581028
 23
1.801448485838069
 33
0.0
  0
SOLID
  5
1136
330
1109
100
AcDbEntity
  8
SOLID
 62
     1
100
AcDbTrace
 10
8.839356104786135
 20
1.779709898068546
 30
0.0
 11
8.822168427478533
 21
1.759226421888862
 31
0.0
 12
8.859335484177783
 22
1.789026435684056
 32
0.0
 13
8.827542130581782
 23
1.751136592315402
 33
0.0
  0
SOLID
  5
1137
330
1109
100
AcDbEntity
  8
SOLID
 62
     1
100
AcDbTrace
 10
8.888464998265758
 20
1.653074429219956
 30
0.0
 11
8.960751962356022
 21
1.789026435684056
 31
0.0
 12
8.892612332108052
 22
1.641029697161812
 32
0.0
 13
8.96634990291487
 23
1.779709898068546
 33
0.0
  0
SOLID
  5
1138
330
1109
100
AcDbEntity
  8
SOLID
 62
     1
100
AcDbTrace
 10
8.895754237745254
 20
1.772236807647912
 30
0.0
 11
8.95003121496035
 21
1.789026435684056
 31
0.0
 12
8.904681441326159
 22
1.789026435684056
 32
0.0
 13
8.904681441326159
 23
1.789026435684056
 33
0.0
  0
SOLID
  5
1139
330
1109
100
AcDbEntity
  8
SOLID
 62
     1
100
AcDbTrace
 10
9.066585180362723
 20
1.82518819906379
 30
0.0
 11
9.113733813174338
 21
1.913861880597489
 31
0.0
 12
9.084870359939877
 22
1.839732887642179
 32
0.0
 13
9.13201899275149
 23
1.928406569175877
 33
0.0
  0
LINE
  5
113A
330
1109
100
AcDbEntity
  8
TRIM
100
AcDbLine
 10
10.66999999853406
 20
2.030339596352224
 30
0.0
 11
10.66999999853406
 21
2.652499998273461
 31
0.0
  0
LINE
  5
113B
330
1109
100
AcDbEntity
  8
TRIM
100
AcDbLine
 10
9.462094455479999
 20
2.000339596352224
 30
0.0
 11
9.462094455480064
 21
0.6043154034249878
 31
0.0
  0
LINE
  5
113C
330
1109
100
AcDbEntity
  8
TRIM
100
AcDbLine
 10
10.66999999853406
 20
0.6043154034249874
 30
0.0
 11
10.66999999853406
 21
2.000339596352224
 31
0.0
  0
LINE
  5
113D
330
1109
100
AcDbEntity
  8
TRIM
100
AcDbLine
 10
9.462094455479999
 20
2.000339596352224
 30
0.0
 11
10.66999999853406
 21
2.000339596352224
 31
0.0
  0
LINE
  5
113E
330
1109
100
AcDbEntity
  8
TRIM
100
AcDbLine
 10
9.432094455479997
 20
2.030339596352224
 30
0.0
 11
10.66999999853406
 21
2.030339596352224
 31
0.0
  0
TEXT
  5
113F
330
1109
100
AcDbEntity
  8
DIM
100
AcDbText
 10
9.821579664239893
 20
1.865565403424988
 30
0.0
 40
0.09
  1
DATE
 41
0.9
 72
     1
 11
9.964293949954178
 21
1.865565403424988
 31
0.0
100
AcDbText
  0
LINE
  5
1140
330
1109
100
AcDbEntity
  8
TRIM
100
AcDbLine
 10
10.24446826441905
 20
1.834315403424988
 30
0.0
 11
9.684119635489306
 21
1.834315403424988
 31
0.0
  0
LINE
  5
1141
330
1109
100
AcDbEntity
  8
TRIM
100
AcDbLine
 10
10.66999999853406
 20
1.654315403424988
 30
0.0
 11
9.462094455480011
 21
1.654315403424988
 31
0.0
  0
LINE
  5
1142
330
1109
100
AcDbEntity
  8
TRIM
100
AcDbLine
 10
9.684119635489306
 20
2.000339596352224
 30
0.0
 11
9.684119635489302
 21
0.9343154034249874
 31
0.0
  0
LINE
  5
1143
330
1109
100
AcDbEntity
  8
TRIM
100
AcDbLine
 10
9.432094455479997
 20
2.030339596352224
 30
0.0
 11
9.432094455480022
 21
1.474315403424987
 31
0.0
  0
TEXT
  5
1144
330
1109
100
AcDbEntity
  8
DIM
100
AcDbText
 10
9.477107045484656
 20
1.865565403424988
 30
0.0
 40
0.09
  1
REV
 41
0.8
 72
     1
 11
9.573107045484656
 21
1.865565403424988
 31
0.0
100
AcDbText
  0
LINE
  5
1145
330
1109
100
AcDbEntity
  8
TRIM
100
AcDbLine
 10
9.684119635489306
 20
1.834315403424988
 30
0.0
 11
9.462094455480006
 21
1.834315403424988
 31
0.0
  0
SOLID
  5
1146
330
1109
100
AcDbEntity
  8
SOLID
 62
     1
100
AcDbTrace
 10
9.336741622233388
 20
1.779709898068546
 30
0.0
 11
9.415805044717822
 21
1.928406569175877
 31
0.0
 12
9.331143681674539
 22
1.789026435684056
 32
0.0
 13
9.397519865140669
 23
1.913861880597488
 33
0.0
  0
SOLID
  5
1147
330
1109
100
AcDbEntity
  8
SOLID
 62
     1
100
AcDbTrace
 10
9.203204583077742
 20
1.779709898068546
 30
0.0
 11
9.336741622233388
 21
1.779709898068546
 31
0.0
 12
9.197606642518891
 22
1.789026435684056
 32
0.0
 13
9.331143681674539
 23
1.789026435684056
 33
0.0
  0
LINE
  5
1148
330
1109
100
AcDbEntity
  8
TRIM
100
AcDbLine
 10
10.24446826441905
 20
2.000339596352224
 30
0.0
 11
10.24446826441905
 21
0.934315403424987
 31
0.0
  0
TEXT
  5
1149
330
1109
100
AcDbEntity
  8
DIM
100
AcDbText
 10
10.2605817160691
 20
1.865565403424988
 30
0.0
 40
0.09
  1
INITIALS
 41
0.8
 72
     1
 11
10.46115314464053
 21
1.865565403424988
 31
0.0
100
AcDbText
  0
LINE
  5
114A
330
1109
100
AcDbEntity
  8
TRIM
100
AcDbLine
 10
10.66999999853406
 20
1.834315403424988
 30
0.0
 11
10.24446826441905
 21
1.834315403424988
 31
0.0
  0
LINE
  5
114B
330
1109
100
AcDbEntity
  8
TRIM
100
AcDbLine
 10
0.2799999985341133
 20
0.5992358197914696
 30
0.0
 11
8.246999998534064
 21
0.5992358197914634
 31
0.0
  0
LINE
  5
114C
330
1109
100
AcDbEntity
  8
TRIM
100
AcDbLine
 10
0.2799999985340644
 20
0.8884716413094695
 30
0.0
 11
8.246999998534064
 21
0.8884716413094633
 31
0.0
  0
LINE
  5
114D
330
1109
100
AcDbEntity
  8
TRIM
100
AcDbLine
 10
0.2499999985340651
 20
0.249999998273462
 30
0.0
 11
10.69999999853406
 21
0.2499999982734629
 31
0.0
  0
LINE
  5
114E
330
1109
100
AcDbEntity
  8
TRIM
100
AcDbLine
 10
0.2799999985340644
 20
0.5692358197914693
 30
0.0
 11
8.246999998534064
 21
0.5692358197914627
 31
0.0
  0
LINE
  5
114F
330
1109
100
AcDbEntity
  8
TRIM
100
AcDbLine
 10
0.2799999985341133
 20
0.2799999982734693
 30
0.0
 11
8.246999998534064
 21
0.2799999982734627
 31
0.0
  0
LINE
  5
1150
330
1109
100
AcDbEntity
  8
TRIM
100
AcDbLine
 10
0.2799999985340651
 20
1.237707462827464
 30
0.0
 11
4.373749998534062
 21
1.237707462827463
 31
0.0
  0
LINE
  5
1151
330
1109
100
AcDbEntity
  8
TRIM
100
AcDbLine
 10
0.2799999985341142
 20
1.207707462827464
 30
0.0
 11
3.562499998534065
 21
1.207707462827464
 31
0.0
  0
LINE
  5
1152
330
1109
100
AcDbEntity
  8
TRIM
100
AcDbLine
 10
0.2799999985340644
 20
0.9184716413094644
 30
0.0
 11
3.562499998534113
 21
0.9184716413094644
 31
0.0
  0
TEXT
  5
1153
330
1109
100
AcDbEntity
  8
TRIM
100
AcDbText
 10
0.3575473542991792
 20
0.6700287859488796
 30
0.0
 40
0.14
  1
DESCRIPTION:
 41
0.9
  7
SIMPLEX
100
AcDbText
  0
TEXT
  5
1154
330
1109
100
AcDbEntity
  8
TRIM
100
AcDbText
 10
0.3575473542991792
 20
0.3575287859488796
 30
0.0
 40
0.14
  1
EXTRA DESC:
 41
0.9
  7
SIMPLEX
100
AcDbText
  0
TEXT
  5
1155
330
1109
100
AcDbEntity
  8
TRIM
100
AcDbText
 10
0.3601805216547635
 20
0.9931394110287762
 30
0.0
 40
0.14
  1
PART NUMBER:
 41
0.8
  7
SIMPLEX
100
AcDbText
  0
LINE
  5
1156
330
1109
100
AcDbEntity
  8
TRIM
100
AcDbLine
 10
0.2799999985340644
 20
0.8884716413094695
 30
0.0
 11
0.2799999985341133
 21
0.5992358197914696
 31
0.0
  0
LINE
  5
1157
330
1109
100
AcDbEntity
  8
TRIM
100
AcDbLine
 10
0.2799999985340644
 20
0.5692358197914693
 30
0.0
 11
0.2799999985341133
 21
0.2799999982734693
 31
0.0
  0
LINE
  5
1158
330
1109
100
AcDbEntity
  8
TRIM
100
AcDbLine
 10
0.2799999985340653
 20
1.207707462827465
 30
0.0
 11
0.2799999985340644
 21
0.9184716413094644
 31
0.0
  0
LINE
  5
1159
330
1109
100
AcDbEntity
  8
TRIM
100
AcDbLine
 10
3.592499998534066
 20
1.207707462827464
 30
0.0
 11
4.343749998534065
 21
1.207707462827464
 31
0.0
  0
TEXT
  5
115A
330
1109
100
AcDbEntity
  8
DIM
 62
     1
100
AcDbText
 10
3.789702379486445
 20
1.103749998273462
 30
0.0
 40
0.08
  1
SHEET
 72
     1
 11
3.968749998534065
 21
1.103749998273462
 31
0.0
100
AcDbText
  0
LINE
  5
115B
330
1109
100
AcDbEntity
  8
TRIM
100
AcDbLine
 10
3.592499998534066
 20
1.207707462827464
 30
0.0
 11
3.592499998534113
 21
0.9184716413094671
 31
0.0
  0
LINE
  5
115C
330
1109
100
AcDbEntity
  8
TRIM
100
AcDbLine
 10
3.562499998534065
 20
1.207707462827464
 30
0.0
 11
3.562499998534113
 21
0.9184716413094644
 31
0.0
  0
LINE
  5
115D
330
1109
100
AcDbEntity
  8
TRIM
100
AcDbLine
 10
4.373749998534062
 20
1.237707462827463
 30
0.0
 11
4.373749998534114
 21
0.9184716413094671
 31
0.0
  0
LINE
  5
115E
330
1109
100
AcDbEntity
  8
TRIM
100
AcDbLine
 10
4.343749998534065
 20
1.207707462827464
 30
0.0
 11
4.343749998534113
 21
0.9184716413094644
 31
0.0
  0
LINE
  5
115F
330
1109
100
AcDbEntity
  8
TRIM
100
AcDbLine
 10
4.373749998534114
 20
0.9184716413094662
 30
0.0
 11
8.246999998534064
 21
0.918471641309463
 31
0.0
  0
LINE
  5
1160
330
1109
100
AcDbEntity
  8
TRIM
100
AcDbLine
 10
9.432094455480024
 20
1.474315403424987
 30
0.0
 11
8.276999998534062
 21
1.474315403424987
 31
0.0
  0
TEXT
  5
1161
330
1109
100
AcDbEntity
  8
DIM
100
AcDbText
 10
8.293249998534063
 20
0.5153392262302923
 30
0.0
 40
0.056
  1
DIMENSIONS IN 'INCHES' UNLESS SPECIFIED OTHERWISE
100
AcDbText
  0
LINE
  5
1162
330
1109
100
AcDbEntity
  8
TRIM
100
AcDbLine
 10
9.432094455480005
 20
1.294315403424988
 30
0.0
 11
8.276999998534051
 21
1.294315403424987
 31
0.0
  0
LINE
  5
1163
330
1109
100
AcDbEntity
  8
TRIM
100
AcDbLine
 10
9.432094455480024
 20
1.444315403424987
 30
0.0
 11
8.276999998534066
 21
1.444315403424987
 31
0.0
  0
LINE
  5
1164
330
1109
100
AcDbEntity
  8
TRIM
100
AcDbLine
 10
8.276999998534064
 20
0.324999998273463
 30
0.0
 11
10.66999999853406
 21
0.3249999982734621
 31
0.0
  0
LINE
  5
1165
330
1109
100
AcDbEntity
  8
TRIM
100
AcDbLine
 10
8.276999998534064
 20
0.474999998273463
 30
0.0
 11
10.66999999853406
 21
0.4749999982734625
 31
0.0
  0
TEXT
  5
1166
330
1109
100
AcDbEntity
  8
TRIM
100
AcDbText
 10
8.324563651603105
 20
0.8310145276027238
 30
0.0
 40
0.07
  1
PRINT APPROVED
 41
1.058889550608496
  7
SIMPLEX
 72
     5
 11
9.27403461531539
 21
0.8310145276027238
 31
0.0
100
AcDbText
  0
LINE
  5
1167
330
1109
100
AcDbEntity
  8
TRIM
100
AcDbLine
 10
9.432094455480063
 20
0.6043154034249878
 30
0.0
 11
8.276999998534064
 21
0.6043154034249878
 31
0.0
  0
LINE
  5
1168
330
1109
100
AcDbEntity
  8
TRIM
 62
     2
100
AcDbLine
 10
9.432094455480012
 20
1.114315403424987
 30
0.0
 11
8.276999998534064
 21
1.114315403424987
 31
0.0
  0
LINE
  5
1169
330
1109
100
AcDbEntity
  8
TRIM
100
AcDbLine
 10
9.432094455480017
 20
0.9343154034249874
 30
0.0
 11
8.276999998534064
 21
0.934315403424987
 31
0.0
  0
LINE
  5
116A
330
1109
100
AcDbEntity
  8
TRIM
 62
     2
100
AcDbLine
 10
9.432094455480024
 20
0.7957609724770878
 30
0.0
 11
8.276999998534064
 21
0.7957609724770878
 31
0.0
  0
LINE
  5
116B
330
1109
100
AcDbEntity
  8
TRIM
100
AcDbLine
 10
9.432094455480031
 20
0.6043154034249874
 30
0.0
 11
8.276999998534064
 21
0.6043154034249874
 31
0.0
  0
LINE
  5
116C
330
1109
100
AcDbEntity
  8
TRIM
100
AcDbLine
 10
8.246999998534064
 20
0.5992358197914598
 30
0.0
 11
8.246999998534064
 21
0.8884716413094597
 31
0.0
  0
LINE
  5
116D
330
1109
100
AcDbEntity
  8
TRIM
100
AcDbLine
 10
8.276999998534064
 20
0.6043154034249878
 30
0.0
 11
8.276999998534064
 21
1.114315403424988
 31
0.0
  0
TEXT
  5
116E
330
1109
100
AcDbEntity
  8
TRIM
100
AcDbText
 10
8.312499998534065
 20
0.3599999982734623
 30
0.0
 40
0.08
  1
FILE:
  7
SIMPLEX
100
AcDbText
  0
LINE
  5
116F
330
1109
100
AcDbEntity
  8
TRIM
100
AcDbLine
 10
8.276999998534064
 20
0.3249999982734653
 30
0.0
 11
8.349999998534064
 21
0.3249999982734648
 31
0.0
  0
LINE
  5
1170
330
1109
100
AcDbEntity
  8
TRIM
100
AcDbLine
 10
8.276999998534064
 20
0.3249999982734621
 30
0.0
 11
8.276999998534064
 21
0.474999998273463
 31
0.0
  0
LINE
  5
1171
330
1109
100
AcDbEntity
  8
TRIM
100
AcDbLine
 10
8.246999998534064
 20
0.2799999982734596
 30
0.0
 11
8.246999998534064
 21
0.5692358197914596
 31
0.0
  0
TEXT
  5
1172
330
1109
100
AcDbEntity
  8
TRIM
100
AcDbText
 10
8.324563651603092
 20
1.149568958550623
 30
0.0
 40
0.07
  1
PRINT DRAWN
 41
1.047995828933662
  7
SIMPLEX
 72
     5
 11
9.061654051286435
 21
1.149568958550623
 31
0.0
100
AcDbText
  0
TEXT
  5
1173
330
1109
100
AcDbEntity
  8
TRIM
100
AcDbText
 10
8.324583587926003
 20
1.317921744520258
 30
0.0
 40
0.09
  1
SCALE:
  7
SIMPLEX
100
AcDbText
  0
LINE
  5
1174
330
1109
100
AcDbEntity
  8
TRIM
100
AcDbLine
 10
8.276999998534064
 20
1.114315403424988
 30
0.0
 11
8.276999998534064
 21
1.444315403424987
 31
0.0
  0
LINE
  5
1175
330
1109
100
AcDbEntity
  8
TRIM
100
AcDbLine
 10
10.66999999853406
 20
0.6043154034249874
 30
0.0
 11
9.462094455480064
 21
0.6043154034249878
 31
0.0
  0
LINE
  5
1176
330
1109
100
AcDbEntity
  8
TRIM
100
AcDbLine
 10
10.66999999853406
 20
0.3249999982734621
 30
0.0
 11
10.66999999853406
 21
0.4749999982734625
 31
0.0
  0
LINE
  5
1177
330
1109
100
AcDbEntity
  8
TRIM
100
AcDbLine
 10
10.66999999853406
 20
0.934315403424987
 30
0.0
 11
9.462094455480039
 21
0.9343154034249874
 31
0.0
  0
LINE
  5
1178
330
1109
100
AcDbEntity
  8
TRIM
100
AcDbLine
 10
10.66999999853406
 20
1.114315403424987
 30
0.0
 11
9.462094455480032
 21
1.114315403424987
 31
0.0
  0
LINE
  5
1179
330
1109
100
AcDbEntity
  8
TRIM
100
AcDbLine
 10
10.66999999853406
 20
1.294315403424987
 30
0.0
 11
9.462094455480025
 21
1.294315403424988
 31
0.0
  0
LINE
  5
117A
330
1109
100
AcDbEntity
  8
TRIM
100
AcDbLine
 10
10.66999999853406
 20
1.474315403424987
 30
0.0
 11
9.462094455480018
 21
1.474315403424987
 31
0.0
  0
TEXT
  5
117B
330
1109
100
AcDbEntity
  8
TRIM
100
AcDbText
 10
9.527645854177304
 20
0.8310145276027238
 30
0.0
 40
0.07
  1
DESIGN ENGINEER
  7
SIMPLEX
100
AcDbText
  0
LINE
  5
117C
330
1109
100
AcDbEntity
  8
TRIM
 62
     2
100
AcDbLine
 10
10.66418891242604
 20
0.7957609724770874
 30
0.0
 11
9.462094455480064
 21
0.7957609724770878
 31
0.0
  0
LINE
  5
117D
330
1109
100
AcDbEntity
  8
TRIM
100
AcDbLine
 10
9.432094455480024
 20
1.444315403424987
 30
0.0
 11
9.432094455480063
 21
0.6043154034249878
 31
0.0
  0
LINE
  5
117E
330
1109
100
AcDbEntity
  8
TRIM
 62
     2
100
AcDbLine
 10
8.986598446570452
 20
0.7957609724770878
 30
0.0
 11
8.98659844657045
 21
0.6043154034249878
 31
0.0
  0
LINE
  5
117F
330
1109
100
AcDbEntity
  8
TRIM
 62
     2
100
AcDbLine
 10
8.986598446570452
 20
1.114315403424987
 30
0.0
 11
8.986598446570452
 21
0.9343154034249874
 31
0.0
  0
LINE
  5
1180
330
1109
100
AcDbEntity
  8
TRIM
100
AcDbLine
 10
3.592499998534113
 20
0.9184716413094671
 30
0.0
 11
4.343749998534113
 21
0.9184716413094662
 31
0.0
  0
ATTDEF
  5
1181
330
1109
100
AcDbEntity
  8
DIM
100
AcDbText
 10
1.748750001101063
 20
0.9930549840549819
 30
0.0
 40
0.13
  1

  7
SIMPLEX
100
AcDbAttributeDefinition
  3
PART_#
  2
PART_#
 70
     0
  0
ATTDEF
  5
1182
330
1109
100
AcDbEntity
  8
DIM
100
AcDbText
 10
1.754683743625886
 20
0.6688693887053426
 30
0.0
 40
0.13
  1

  7
SIMPLEX
100
AcDbAttributeDefinition
  3
PART_DESCRIPTION
  2
PART_DESCRIPTION
 70
     0
  0
ATTDEF
  5
1183
330
1109
100
AcDbEntity
  8
DIM
100
AcDbText
 10
1.75
 20
0.3555424452224223
 30
0.0
 40
0.13
  1

  7
SIMPLEX
100
AcDbAttributeDefinition
  3
EXTRA_DESCRIPTION
  2
EXTRA_DESCRIPTION
 70
     0
  0
ATTDEF
  5
1184
330
1109
100
AcDbEntity
  8
DIM
100
AcDbText
 10
3.96875
 20
1.0
 30
0.0
 40
0.1
  1

  7
SIMPLEX
 72
     4
 11
3.96875
 21
1.0
 31
0.0
100
AcDbAttributeDefinition
  3
SHEET
  2
SHEET
 70
     0
  0
ENDBLK
  5
1186
330
1109
100
AcDbEntity
  8
0
100
AcDbBlockEnd
  0
BLOCK
  5
1189
330
1187
100
AcDbEntity
  8
0
100
AcDbBlockBegin
  2
A$C56887695
 70
     2
 10
0.0
 20
0.0
 30
0.0
  3
A$C56887695
  1

  0
ATTDEF
  5
1188
330
1187
100
AcDbEntity
  8
DIM
100
AcDbText
 10
0.0000000016510064
 20
0.0076190448079387
 30
0.0
 40
0.08
  1

  7
SIMPLEX
100
AcDbAttributeDefinition
  3
FILE_NAME
  2
FILE_NAME
 70
     0
  0
ENDBLK
  5
118A
330
1187
100
AcDbEntity
  8
0
100
AcDbBlockEnd
  0
BLOCK
  5
118D
330
118B
100
AcDbEntity
  8
0
100
AcDbBlockBegin
  2
A$C406F4052
 70
     2
 10
0.0
 20
0.0
 30
0.0
  3
A$C406F4052
  1

  0
ATTDEF
  5
118C
330
118B
100
AcDbEntity
  8
DIM
100
AcDbText
 10
0.0000000097657775
 20
0.0000000059644165
 30
0.0
 40
0.08
  1

  7
SIMPLEX
100
AcDbAttributeDefinition
  3
DRAWING_SCALE
  2
SCALE
 70
     0
  0
ENDBLK
  5
118E
330
118B
100
AcDbEntity
  8
0
100
AcDbBlockEnd
  0
BLOCK
  5
1191
330
118F
100
AcDbEntity
  8
0
100
AcDbBlockBegin
  2
A$C217D2A32
 70
     2
 10
0.0
 20
0.0
 30
0.0
  3
A$C217D2A32
  1

  0
ATTDEF
  5
1190
330
118F
100
AcDbEntity
  8
DIM
100
AcDbText
 10
0.1409523881144832
 20
0.0400000152139821
 30
0.0
 40
0.08
  1

  7
SIMPLEX
 72
     4
 11
0.1409523881144832
 21
0.0400000152139821
 31
0.0
100
AcDbAttributeDefinition
  3
DATE_DRAWN
  2
DATE
 70
     0
  0
ENDBLK
  5
1192
330
118F
100
AcDbEntity
  8
0
100
AcDbBlockEnd
  0
BLOCK
  5
1195
330
1193
100
AcDbEntity
  8
0
100
AcDbBlockBegin
  2
A$C26835032
 70
     2
 10
0.0
 20
0.0
 30
0.0
  3
A$C26835032
  1

  0
ATTDEF
  5
1194
330
1193
100
AcDbEntity
  8
DIM
100
AcDbText
 10
0.1504761941594115
 20
0.0400000152139821
 30
0.0
 40
0.08
  1

  7
SIMPLEX
 72
     4
 11
0.1504761941594115
 21
0.0400000152139821
 31
0.0
100
AcDbAttributeDefinition
  3
DRAWN_BY?
  2
WHO?
 70
     0
  0
ENDBLK
  5
1196
330
1193
100
AcDbEntity
  8
0
100
AcDbBlockEnd
  0
BLOCK
  5
1199
330
1197
100
AcDbEntity
  8
0
100
AcDbBlockBegin
  2
A$C11730435
 70
     2
 10
0.0
 20
0.0
 30
0.0
  3
A$C11730435
  1

  0
ATTDEF
  5
1198
330
1197
100
AcDbEntity
  8
DIM
100
AcDbText
 10
0.1542857245995872
 20
0.0399999866443972
 30
0.0
 40
0.08
  1

  7
SCRIPT
 72
     4
 11
0.1542857245995872
 21
0.0399999866443972
 31
0.0
100
AcDbAttributeDefinition
  3
DATE_APPROVED
  2
DATE
 70
     0
  0
ENDBLK
  5
119A
330
1197
100
AcDbEntity
  8
0
100
AcDbBlockEnd
  0
BLOCK
  5
119D
330
119B
100
AcDbEntity
  8
0
100
AcDbBlockBegin
  2
A$C740A492C
 70
     2
 10
0.0
 20
0.0
 30
0.0
  3
A$C740A492C
  1

  0
ATTDEF
  5
119C
330
119B
100
AcDbEntity
  8
DIM
100
AcDbText
 10
0.1676190447818424
 20
0.0399999866443968
 30
0.0
 40
0.08
  1

  7
SCRIPT
 72
     4
 11
0.1676190447818424
 21
0.0399999866443968
 31
0.0
100
AcDbAttributeDefinition
  3
APPROVED_BY?
  2
WHO?
 70
     0
  0
ENDBLK
  5
119E
330
119B
100
AcDbEntity
  8
0
100
AcDbBlockEnd
  0
BLOCK
  5
11A1
330
119F
100
AcDbEntity
  8
0
100
AcDbBlockBegin
  2
A$C251463E3
 70
     2
 10
0.0
 20
0.0
 30
0.0
  3
A$C251463E3
  1

  0
ATTDEF
  5
11A0
330
119F
100
AcDbEntity
  8
DIM
100
AcDbText
 10
-0.0076190422628919
 20
-0.0000000133556033
 30
0.0
 40
0.08
  1

  7
SCRIPT
 11
-0.0076190422628919
 21
0.0399999866443968
 31
0.0
100
AcDbAttributeDefinition
  3
ENGINEER_IN_CHARGE
  2
WHO?
 70
     0
 74
     2
  0
ENDBLK
  5
11A2
330
119F
100
AcDbEntity
  8
0
100
AcDbBlockEnd
  0
BLOCK
  5
11A5
330
11A3
100
AcDbEntity
  8
0
100
AcDbBlockBegin
  2
A$C46507260
 70
     0
 10
0.0
 20
0.0
 30
0.0
  3
A$C46507260
  1

  0
TEXT
  5
11A4
330
11A3
100
AcDbEntity
  8
DIM
100
AcDbText
 10
0.0000000011396958
 20
0.0000000091671084
 30
0.0
 40
0.04
  1
F04-0001-01 REV. 00
 72
     2
 11
0.6933333344730297
 21
0.0000000091671084
 31
0.0
100
AcDbText
  0
ENDBLK
  5
11A6
330
11A3
100
AcDbEntity
  8
0
100
AcDbBlockEnd
  0
BLOCK
  5
1232
330
11AE
100
AcDbEntity
  8
0
100
AcDbBlockBegin
  2
tft_aprlist
 70
     2
 10
0.0
 20
0.0
 30
0.0
  3
tft_aprlist
  1

  0
INSERT
  5
11AF
330
11AE
100
AcDbEntity
  8
DIM
100
AcDbBlockReference
 66
     1
  2
A$C4FB65283
 10
0.9375
 20
-0.9375
 30
0.0
  0
ATTRIB
  5
11B0
330
11AF
100
AcDbEntity
  8
DIM
100
AcDbText
 10
0.937500002566999
 20
-0.8941666572544825
 30
0.0
 40
0.13
  1

  7
SIMPLEX
100
AcDbAttribute
  2
PART_#
 70
     0
  0
SEQEND
  5
11B1
330
11AF
100
AcDbEntity
  8
DIM
  0
LINE
  5
11B2
330
11AE
100
AcDbEntity
  8
TRIM
100
AcDbLine
 10
10.42
 20
3.919999999999998
 30
0.0
 11
0.0299999999999994
 21
3.919999999999998
 31
0.0
  0
LINE
  5
11B3
330
11AE
100
AcDbEntity
  8
TRIM
100
AcDbLine
 10
0.0000000000000004
 20
3.949999999999999
 30
0.0
 11
10.45
 21
3.949999999999999
 31
0.0
  0
LINE
  5
11B4
330
11AE
100
AcDbEntity
  8
TRIM
100
AcDbLine
 10
0.0299999999999994
 20
3.919999999999998
 30
0.0
 11
0.0300000000000001
 21
-2.962292535445997
 31
0.0
  0
LINE
  5
11B5
330
11AE
100
AcDbEntity
  8
TRIM
100
AcDbLine
 10
0.0
 20
3.949999999999999
 30
0.0
 11
0.0
 21
-3.95
 31
0.0
  0
LINE
  5
11B6
330
11AE
100
AcDbEntity
  8
TRIM
100
AcDbLine
 10
10.42
 20
-1.5175
 30
0.0
 11
10.42
 21
3.919999999999996
 31
0.0
  0
LINE
  5
11B7
330
11AE
100
AcDbEntity
  8
TRIM
100
AcDbLine
 10
10.45
 20
-3.950000000000002
 30
0.0
 11
10.45
 21
3.949999999999997
 31
0.0
  0
SOLID
  5
11B8
330
11AE
100
AcDbEntity
  8
SOLID
 62
     1
100
AcDbTrace
 10
8.850645716126262
 20
-2.583175278293517
 30
0.0
 11
8.953204584543676
 21
-2.390290100204915
 31
0.0
 12
8.844321505542426
 22
-2.575224655934988
 32
0.0
 13
8.947606643984826
 23
-2.380973562589405
 33
0.0
  0
SOLID
  5
11B9
330
11AE
100
AcDbEntity
  8
SOLID
 62
     1
100
AcDbTrace
 10
8.74363316304192
 20
-2.589343763358917
 30
0.0
 11
8.928899859358651
 21
-2.368551512435391
 31
0.0
 12
8.835889224763977
 22
-2.564623826123615
 32
0.0
 13
8.940142723239695
 23
-2.368551512435391
 33
0.0
  0
SOLID
  5
11BA
330
11AE
100
AcDbEntity
  8
SOLID
 62
     1
100
AcDbTrace
 10
8.775982482150034
 20
-2.368551512435392
 30
0.0
 11
9.123139627170399
 21
-2.27553103578049
 31
0.0
 12
9.073679762395343
 22
-2.368551512435391
 32
0.0
 13
9.073679762395343
 23
-2.368551512435391
 33
0.0
  0
SOLID
  5
11BB
330
11AE
100
AcDbEntity
  8
SOLID
 62
     1
100
AcDbTrace
 10
8.816585181828658
 20
-2.344811799209671
 30
0.0
 11
9.147519866606604
 21
-2.256138117675972
 31
0.0
 12
8.834870361405812
 22
-2.330267110631282
 32
0.0
 13
9.165805046183757
 23
-2.241593429097584
 33
0.0
  0
LINE
  5
11BC
330
11AE
100
AcDbEntity
  8
TRIM
100
AcDbLine
 10
10.42
 20
-1.5475
 30
0.0
 11
8.026999999999999
 21
-1.547499999999999
 31
0.0
  0
TEXT
  5
11BD
330
11AE
100
AcDbEntity
  8
TRIM
100
AcDbText
 10
8.09375
 20
-1.717123664042923
 30
0.0
 40
0.1
  1
TASK FORCE TIPS, INC.
 51
10.0
  7
ROMAND
100
AcDbText
  0
TEXT
  5
11BE
330
11AE
100
AcDbEntity
  8
TRIM
100
AcDbText
 10
8.128853320039944
 20
-2.15479946193006
 30
0.0
 40
0.09
  1
219-462-6161
  7
SIMPLEX
100
AcDbText
  0
TEXT
  5
11BF
330
11AE
100
AcDbEntity
  8
TRIM
 62
     2
100
AcDbText
 10
8.128853320039944
 20
-2.004135382055867
 30
0.0
 40
0.09
  1
VALPARAISO, IN 46383
  7
SIMPLEX
100
AcDbText
  0
TEXT
  5
11C0
330
11AE
100
AcDbEntity
  8
TRIM
 62
     2
100
AcDbText
 10
8.128853320039944
 20
-1.859417196791166
 30
0.0
 40
0.09
  1
2800 E. EVANS AVE.
  7
SIMPLEX
100
AcDbText
  0
LINE
  5
11C1
330
11AE
100
AcDbEntity
  8
TRIM
100
AcDbLine
 10
10.42
 20
-1.5175
 30
0.0
 11
7.997000000000003
 21
-1.5175
 31
0.0
  0
LINE
  5
11C2
330
11AE
100
AcDbEntity
  8
TRIM
100
AcDbLine
 10
8.026999999999997
 20
-2.695684594848474
 30
0.0
 11
8.026999999999999
 21
-1.547499999999999
 31
0.0
  0
LINE
  5
11C3
330
11AE
100
AcDbEntity
  8
TRIM
100
AcDbLine
 10
7.996999999999999
 20
-3.281528356963998
 30
0.0
 11
7.997000000000003
 21
-1.5175
 31
0.0
  0
SOLID
  5
11C4
330
11AE
100
AcDbEntity
  8
SOLID
 62
     1
100
AcDbTrace
 10
8.043289410762174
 20
-2.390290100204915
 30
0.0
 11
8.307257976534964
 21
-2.390290100204915
 31
0.0
 12
8.114055539671543
 22
-2.380973562589405
 32
0.0
 13
8.327237355926614
 23
-2.380973562589405
 33
0.0
  0
SOLID
  5
11C5
330
11AE
100
AcDbEntity
  8
SOLID
 62
     1
100
AcDbTrace
 10
8.043289410762174
 20
-2.390290100204915
 30
0.0
 11
8.598232942251094
 21
-2.241593429097584
 31
0.0
 12
8.114055539671543
 22
-2.380973562589405
 32
0.0
 13
8.579947762673942
 23
-2.256138117675972
 33
0.0
  0
SOLID
  5
11C6
330
11AE
100
AcDbEntity
  8
SOLID
 62
     1
100
AcDbTrace
 10
8.168609832132082
 20
-2.589343763358917
 30
0.0
 11
8.353876528448813
 21
-2.368551512435391
 31
0.0
 12
8.260865893854139
 22
-2.564623826123616
 32
0.0
 13
8.365119392329857
 23
-2.368551512435391
 33
0.0
  0
SOLID
  5
11C7
330
11AE
100
AcDbEntity
  8
SOLID
 62
     1
100
AcDbTrace
 10
8.107639478387344
 20
-2.628186162520601
 30
0.0
 11
8.307257976534964
 21
-2.390290100204915
 31
0.0
 12
8.133769629992231
 22
-2.611539420022737
 32
0.0
 13
8.327237355926614
 23
-2.380973562589405
 33
0.0
  0
SOLID
  5
11C8
330
11AE
100
AcDbEntity
  8
SOLID
 62
     1
100
AcDbTrace
 10
8.269298174632588
 20
-2.575224655934988
 30
0.0
 11
8.372583313074988
 21
-2.380973562589405
 31
0.0
 12
8.275622385216424
 22
-2.583175278293517
 32
0.0
 13
8.378181253633838
 23
-2.390290100204915
 33
0.0
  0
SOLID
  5
11C9
330
11AE
100
AcDbEntity
  8
SOLID
 62
     1
100
AcDbTrace
 10
8.519123824336961
 20
-2.473989674493337
 30
0.0
 11
8.389737608104452
 21
-2.628186162520601
 31
0.0
 12
8.534207787034425
 22
-2.470507267310368
 32
0.0
 13
8.415867759709337
 23
-2.611539420022737
 33
0.0
  0
SOLID
  5
11CA
330
11AE
100
AcDbEntity
  8
SOLID
 62
     1
100
AcDbTrace
 10
8.55772051493353
 20
-2.583175278293517
 30
0.0
 11
8.597274695487143
 21
-2.508784684111249
 31
0.0
 12
8.551396304349694
 22
-2.575224655934988
 32
0.0
 13
8.59312736164485
 23
-2.496739952053105
 33
0.0
  0
SOLID
  5
11CB
330
11AE
100
AcDbEntity
  8
SOLID
 62
     1
100
AcDbTrace
 10
8.902260686836452
 20
-2.380973562589405
 30
0.0
 11
8.708792960902071
 21
-2.611539420022736
 31
0.0
 12
8.882281307444802
 22
-2.390290100204915
 32
0.0
 13
8.682662809297184
 23
-2.628186162520601
 33
0.0
  0
SOLID
  5
11CC
330
11AE
100
AcDbEntity
  8
SOLID
 62
     1
100
AcDbTrace
 10
8.450707961849186
 20
-2.589343763358917
 30
0.0
 11
8.554319737297708
 21
-2.465864057733076
 31
0.0
 12
8.542964023571245
 22
-2.564623826123616
 32
0.0
 13
8.587597583188456
 23
-2.480680309308914
 33
0.0
  0
SOLID
  5
11CD
330
11AE
100
AcDbEntity
  8
SOLID
 62
     1
100
AcDbTrace
 10
8.389737608104452
 20
-2.628186162520601
 30
0.0
 11
8.55772051493353
 21
-2.583175278293517
 31
0.0
 12
8.415867759709337
 22
-2.611539420022737
 32
0.0
 13
8.551396304349694
 23
-2.575224655934988
 33
0.0
  0
SOLID
  5
11CE
330
11AE
100
AcDbEntity
  8
SOLID
 62
     1
100
AcDbTrace
 10
8.107639478387344
 20
-2.628186162520601
 30
0.0
 11
8.275622385216424
 21
-2.583175278293517
 31
0.0
 12
8.133769629992231
 22
-2.611539420022737
 32
0.0
 13
8.269298174632588
 23
-2.575224655934988
 33
0.0
  0
SOLID
  5
11CF
330
11AE
100
AcDbEntity
  8
SOLID
 62
     1
100
AcDbTrace
 10
8.682662809297184
 20
-2.628186162520601
 30
0.0
 11
8.850645716126262
 21
-2.583175278293517
 31
0.0
 12
8.708792960902071
 22
-2.611539420022736
 32
0.0
 13
8.844321505542426
 23
-2.575224655934988
 33
0.0
  0
SOLID
  5
11D0
330
11AE
100
AcDbEntity
  8
SOLID
 62
     1
100
AcDbTrace
 10
8.20841037821737
 20
-2.368551512435391
 30
0.0
 11
8.555567523237739
 21
-2.27553103578049
 31
0.0
 12
8.50610765846268
 22
-2.368551512435391
 32
0.0
 13
8.50610765846268
 23
-2.368551512435391
 33
0.0
  0
SOLID
  5
11D1
330
11AE
100
AcDbEntity
  8
SOLID
 62
     1
100
AcDbTrace
 10
8.372583313074988
 20
-2.380973562589405
 30
0.0
 11
8.609335485643718
 21
-2.380973562589405
 31
0.0
 12
8.378181253633838
 22
-2.390290100204915
 32
0.0
 13
8.58935610625207
 23
-2.390290100204915
 33
0.0
  0
SOLID
  5
11D2
330
11AE
100
AcDbEntity
  8
SOLID
 62
     1
100
AcDbTrace
 10
8.572168428944468
 20
-2.410773576384599
 30
0.0
 11
8.457090831512811
 21
-2.446370806652486
 31
0.0
 12
8.577542132047717
 22
-2.418863405958059
 32
0.0
 13
8.483530453625318
 23
-2.44794426478169
 33
0.0
  0
SOLID
  5
11D3
330
11AE
100
AcDbEntity
  8
SOLID
 62
     1
100
AcDbTrace
 10
8.457090831512811
 20
-2.446370806652486
 30
0.0
 11
8.519123824336961
 21
-2.473989674493337
 31
0.0
 12
8.483530453625318
 22
-2.44794426478169
 32
0.0
 13
8.534207787034425
 23
-2.470507267310368
 33
0.0
  0
SOLID
  5
11D4
330
11AE
100
AcDbEntity
  8
SOLID
 62
     1
100
AcDbTrace
 10
8.492196430183701
 20
-2.368551512435392
 30
0.0
 11
8.839353575204068
 21
-2.27553103578049
 31
0.0
 12
8.78989371042901
 22
-2.368551512435391
 32
0.0
 13
8.78989371042901
 23
-2.368551512435391
 33
0.0
  0
SOLID
  5
11D5
330
11AE
100
AcDbEntity
  8
SOLID
 62
     1
100
AcDbTrace
 10
8.710751963821957
 20
-2.380973562589405
 30
0.0
 11
8.902260686836452
 21
-2.380973562589405
 31
0.0
 12
8.716349904380805
 22
-2.390290100204915
 32
0.0
 13
8.882281307444802
 23
-2.390290100204915
 33
0.0
  0
SOLID
  5
11D6
330
11AE
100
AcDbEntity
  8
SOLID
 62
     1
100
AcDbTrace
 10
8.551084309439481
 20
-2.330267110631282
 30
0.0
 11
8.882018994217425
 21
-2.241593429097584
 31
0.0
 12
8.532799129862327
 22
-2.34481179920967
 32
0.0
 13
8.863733814640273
 23
-2.256138117675972
 33
0.0
  0
SOLID
  5
11D7
330
11AE
100
AcDbEntity
  8
SOLID
 62
     1
100
AcDbTrace
 10
8.532799129862327
 20
-2.34481179920967
 30
0.0
 11
8.579947762673942
 21
-2.256138117675972
 31
0.0
 12
8.551084309439481
 22
-2.330267110631282
 32
0.0
 13
8.598232942251094
 23
-2.241593429097584
 33
0.0
  0
SOLID
  5
11D8
330
11AE
100
AcDbEntity
  8
SOLID
 62
     1
100
AcDbTrace
 10
8.59312736164485
 20
-2.496739952053105
 30
0.0
 11
8.638464999731693
 21
-2.516925569053505
 31
0.0
 12
8.597274695487143
 22
-2.508784684111249
 32
0.0
 13
8.642612333573987
 23
-2.528970301111649
 33
0.0
  0
SOLID
  5
11D9
330
11AE
100
AcDbEntity
  8
SOLID
 62
     1
100
AcDbTrace
 10
8.518783283108664
 20
-2.450042208953961
 30
0.0
 11
8.687749359579143
 21
-2.397775525726124
 31
0.0
 12
8.6329352212753
 22
-2.500865926309313
 32
0.0
 13
8.6329352212753
 23
-2.500865926309313
 33
0.0
  0
SOLID
  5
11DA
330
11AE
100
AcDbEntity
  8
SOLID
 62
     1
100
AcDbTrace
 10
8.584707069518715
 20
-2.429649845389338
 30
0.0
 11
8.635974658165919
 21
-2.368551512435391
 31
0.0
 12
8.620641232051864
 22
-2.41853424437989
 32
0.0
 13
8.647217522046963
 23
-2.368551512435391
 33
0.0
  0
SOLID
  5
11DB
330
11AE
100
AcDbEntity
  8
SOLID
 62
     1
100
AcDbTrace
 10
8.58935610625207
 20
-2.390290100204915
 30
0.0
 11
8.572168428944468
 21
-2.410773576384599
 31
0.0
 12
8.609335485643718
 22
-2.380973562589405
 32
0.0
 13
8.577542132047717
 23
-2.418863405958059
 33
0.0
  0
SOLID
  5
11DC
330
11AE
100
AcDbEntity
  8
SOLID
 62
     1
100
AcDbTrace
 10
8.638464999731693
 20
-2.516925569053505
 30
0.0
 11
8.710751963821957
 21
-2.380973562589405
 31
0.0
 12
8.642612333573987
 22
-2.528970301111649
 32
0.0
 13
8.716349904380805
 23
-2.390290100204915
 33
0.0
  0
SOLID
  5
11DD
330
11AE
100
AcDbEntity
  8
SOLID
 62
     1
100
AcDbTrace
 10
8.645754239211189
 20
-2.397763190625549
 30
0.0
 11
8.700031216426285
 21
-2.380973562589405
 31
0.0
 12
8.654681442792094
 22
-2.380973562589405
 32
0.0
 13
8.654681442792094
 23
-2.380973562589405
 33
0.0
  0
SOLID
  5
11DE
330
11AE
100
AcDbEntity
  8
SOLID
 62
     1
100
AcDbTrace
 10
8.816585181828658
 20
-2.344811799209671
 30
0.0
 11
8.863733814640273
 21
-2.256138117675972
 31
0.0
 12
8.834870361405812
 22
-2.330267110631282
 32
0.0
 13
8.882018994217425
 23
-2.241593429097584
 33
0.0
  0
LINE
  5
11DF
330
11AE
100
AcDbEntity
  8
TRIM
100
AcDbLine
 10
10.42
 20
-2.169660401921237
 30
0.0
 11
10.42
 21
-1.5475
 31
0.0
  0
LINE
  5
11E0
330
11AE
100
AcDbEntity
  8
TRIM
100
AcDbLine
 10
9.212094456945933
 20
-2.199660401921237
 30
0.0
 11
9.212094456945999
 21
-3.595684594848474
 31
0.0
  0
LINE
  5
11E1
330
11AE
100
AcDbEntity
  8
TRIM
100
AcDbLine
 10
10.42
 20
-3.595684594848474
 30
0.0
 11
10.42
 21
-2.199660401921237
 31
0.0
  0
LINE
  5
11E2
330
11AE
100
AcDbEntity
  8
TRIM
100
AcDbLine
 10
9.212094456945933
 20
-2.199660401921237
 30
0.0
 11
10.42
 21
-2.199660401921237
 31
0.0
  0
LINE
  5
11E3
330
11AE
100
AcDbEntity
  8
TRIM
100
AcDbLine
 10
9.182094456945932
 20
-2.169660401921237
 30
0.0
 11
10.42
 21
-2.169660401921237
 31
0.0
  0
TEXT
  5
11E4
330
11AE
100
AcDbEntity
  8
DIM
100
AcDbText
 10
9.571579665705828
 20
-2.334434594848473
 30
0.0
 40
0.09
  1
DATE
 41
0.9
 72
     1
 11
9.714293951420113
 21
-2.334434594848473
 31
0.0
100
AcDbText
  0
LINE
  5
11E5
330
11AE
100
AcDbEntity
  8
TRIM
100
AcDbLine
 10
9.994468265884984
 20
-2.365684594848473
 30
0.0
 11
9.434119636955241
 21
-2.365684594848473
 31
0.0
  0
LINE
  5
11E6
330
11AE
100
AcDbEntity
  8
TRIM
100
AcDbLine
 10
10.42
 20
-2.545684594848474
 30
0.0
 11
9.212094456945946
 21
-2.545684594848474
 31
0.0
  0
LINE
  5
11E7
330
11AE
100
AcDbEntity
  8
TRIM
100
AcDbLine
 10
9.434119636955241
 20
-2.199660401921237
 30
0.0
 11
9.434119636955237
 21
-3.265684594848474
 31
0.0
  0
LINE
  5
11E8
330
11AE
100
AcDbEntity
  8
TRIM
100
AcDbLine
 10
9.182094456945932
 20
-2.169660401921237
 30
0.0
 11
9.182094456945957
 21
-2.695684594848474
 31
0.0
  0
TEXT
  5
11E9
330
11AE
100
AcDbEntity
  8
DIM
100
AcDbText
 10
9.227107046950591
 20
-2.334434594848473
 30
0.0
 40
0.09
  1
REV
 41
0.8
 72
     1
 11
9.323107046950591
 21
-2.334434594848473
 31
0.0
100
AcDbText
  0
LINE
  5
11EA
330
11AE
100
AcDbEntity
  8
TRIM
100
AcDbLine
 10
9.434119636955241
 20
-2.365684594848473
 30
0.0
 11
9.212094456945941
 21
-2.365684594848473
 31
0.0
  0
SOLID
  5
11EB
330
11AE
100
AcDbEntity
  8
SOLID
 62
     1
100
AcDbTrace
 10
9.086741623699323
 20
-2.390290100204915
 30
0.0
 11
9.165805046183757
 21
-2.241593429097584
 31
0.0
 12
9.081143683140474
 22
-2.380973562589405
 32
0.0
 13
9.147519866606604
 23
-2.256138117675972
 33
0.0
  0
SOLID
  5
11EC
330
11AE
100
AcDbEntity
  8
SOLID
 62
     1
100
AcDbTrace
 10
8.953204584543676
 20
-2.390290100204915
 30
0.0
 11
9.086741623699323
 21
-2.390290100204915
 31
0.0
 12
8.947606643984826
 22
-2.380973562589405
 32
0.0
 13
9.081143683140474
 23
-2.380973562589405
 33
0.0
  0
LINE
  5
11ED
330
11AE
100
AcDbEntity
  8
TRIM
100
AcDbLine
 10
9.994468265884982
 20
-2.199660401921237
 30
0.0
 11
9.994468265884982
 21
-3.265684594848475
 31
0.0
  0
TEXT
  5
11EE
330
11AE
100
AcDbEntity
  8
DIM
100
AcDbText
 10
10.01058171753503
 20
-2.334434594848473
 30
0.0
 40
0.09
  1
INITIALS
 41
0.8
 72
     1
 11
10.21115314610646
 21
-2.334434594848473
 31
0.0
100
AcDbText
  0
LINE
  5
11EF
330
11AE
100
AcDbEntity
  8
TRIM
100
AcDbLine
 10
10.42
 20
-2.365684594848473
 30
0.0
 11
9.994468265884984
 21
-2.365684594848473
 31
0.0
  0
LINE
  5
11F0
330
11AE
100
AcDbEntity
  8
TRIM
100
AcDbLine
 10
0.0300000000000482
 20
-3.600764178481992
 30
0.0
 11
7.996999999999999
 21
-3.600764178481998
 31
0.0
  0
LINE
  5
11F1
330
11AE
100
AcDbEntity
  8
TRIM
100
AcDbLine
 10
0.0299999999999994
 20
-3.311528356963992
 30
0.0
 11
7.996999999999999
 21
-3.311528356963998
 31
0.0
  0
LINE
  5
11F2
330
11AE
100
AcDbEntity
  8
TRIM
100
AcDbLine
 10
0.0
 20
-3.95
 30
0.0
 11
10.45
 21
-3.949999999999999
 31
0.0
  0
LINE
  5
11F3
330
11AE
100
AcDbEntity
  8
TRIM
100
AcDbLine
 10
0.0299999999999994
 20
-3.630764178481992
 30
0.0
 11
7.996999999999999
 21
-3.630764178481999
 31
0.0
  0
LINE
  5
11F4
330
11AE
100
AcDbEntity
  8
TRIM
100
AcDbLine
 10
0.0300000000000482
 20
-3.919999999999992
 30
0.0
 11
7.996999999999999
 21
-3.919999999999999
 31
0.0
  0
LINE
  5
11F5
330
11AE
100
AcDbEntity
  8
TRIM
100
AcDbLine
 10
0.0300000000000001
 20
-2.962292535445997
 30
0.0
 11
6.060374999999972
 21
-2.962292535446001
 31
0.0
  0
LINE
  5
11F6
330
11AE
100
AcDbEntity
  8
TRIM
100
AcDbLine
 10
0.0300000000000491
 20
-2.992292535445997
 30
0.0
 11
5.249124999999975
 21
-2.992292535445999
 31
0.0
  0
LINE
  5
11F7
330
11AE
100
AcDbEntity
  8
TRIM
100
AcDbLine
 10
0.0299999999999994
 20
-3.281528356963997
 30
0.0
 11
5.249125000000024
 21
-3.281528356964
 31
0.0
  0
TEXT
  5
11F8
330
11AE
100
AcDbEntity
  8
TRIM
100
AcDbText
 10
0.1075473557651141
 20
-3.529971212324582
 30
0.0
 40
0.14
  1
DESCRIPTION:
 41
0.9
  7
SIMPLEX
100
AcDbText
  0
TEXT
  5
11F9
330
11AE
100
AcDbEntity
  8
TRIM
100
AcDbText
 10
0.1075473557651141
 20
-3.842471212324582
 30
0.0
 40
0.14
  1
EXTRA DESC:
 41
0.9
  7
SIMPLEX
100
AcDbText
  0
TEXT
  5
11FA
330
11AE
100
AcDbEntity
  8
TRIM
100
AcDbText
 10
0.1101805231206985
 20
-3.206860587244686
 30
0.0
 40
0.14
  1
PART NUMBER:
 41
0.8
  7
SIMPLEX
100
AcDbText
  0
LINE
  5
11FB
330
11AE
100
AcDbEntity
  8
TRIM
100
AcDbLine
 10
0.0299999999999994
 20
-3.311528356963992
 30
0.0
 11
0.0300000000000482
 21
-3.600764178481992
 31
0.0
  0
LINE
  5
11FC
330
11AE
100
AcDbEntity
  8
TRIM
100
AcDbLine
 10
0.0299999999999994
 20
-3.630764178481992
 30
0.0
 11
0.0300000000000482
 21
-3.919999999999992
 31
0.0
  0
LINE
  5
11FD
330
11AE
100
AcDbEntity
  8
TRIM
100
AcDbLine
 10
0.0300000000000003
 20
-2.992292535445996
 30
0.0
 11
0.0299999999999994
 21
-3.281528356963997
 31
0.0
  0
LINE
  5
11FE
330
11AE
100
AcDbEntity
  8
TRIM
100
AcDbLine
 10
5.279124999999976
 20
-2.992292535445999
 30
0.0
 11
6.030374999999975
 21
-2.992292535445999
 31
0.0
  0
TEXT
  5
11FF
330
11AE
100
AcDbEntity
  8
DIM
 62
     1
100
AcDbText
 10
5.476327380952356
 20
-3.096250000000002
 30
0.0
 40
0.08
  1
SHEET
 72
     1
 11
5.655374999999975
 21
-3.096250000000002
 31
0.0
100
AcDbText
  0
LINE
  5
1200
330
11AE
100
AcDbEntity
  8
TRIM
100
AcDbLine
 10
5.279124999999976
 20
-2.992292535445999
 30
0.0
 11
5.279125000000023
 21
-3.281528356963997
 31
0.0
  0
LINE
  5
1201
330
11AE
100
AcDbEntity
  8
TRIM
100
AcDbLine
 10
5.249124999999975
 20
-2.992292535446
 30
0.0
 11
5.249125000000024
 21
-3.281528356964
 31
0.0
  0
LINE
  5
1202
330
11AE
100
AcDbEntity
  8
TRIM
100
AcDbLine
 10
6.060374999999972
 20
-2.962292535446001
 30
0.0
 11
6.060375000000024
 21
-3.281528356963997
 31
0.0
  0
LINE
  5
1203
330
11AE
100
AcDbEntity
  8
TRIM
100
AcDbLine
 10
6.030374999999975
 20
-2.992292535445999
 30
0.0
 11
6.030375000000024
 21
-3.281528356964
 31
0.0
  0
LINE
  5
1204
330
11AE
100
AcDbEntity
  8
TRIM
100
AcDbLine
 10
6.060375000000024
 20
-3.281528356963998
 30
0.0
 11
7.996999999999999
 21
-3.281528356963999
 31
0.0
  0
LINE
  5
1205
330
11AE
100
AcDbEntity
  8
TRIM
100
AcDbLine
 10
9.182094456945959
 20
-2.695684594848474
 30
0.0
 11
8.026999999999997
 21
-2.695684594848474
 31
0.0
  0
TEXT
  5
1206
330
11AE
100
AcDbEntity
  8
DIM
100
AcDbText
 10
8.043249999999998
 20
-3.684660772043169
 30
0.0
 40
0.056
  1
DIMENSIONS IN 'INCHES' UNLESS SPECIFIED OTHERWISE
100
AcDbText
  0
LINE
  5
1207
330
11AE
100
AcDbEntity
  8
TRIM
100
AcDbLine
 10
9.182094456945939
 20
-2.905684594848473
 30
0.0
 11
8.026999999999986
 21
-2.905684594848474
 31
0.0
  0
LINE
  5
1208
330
11AE
100
AcDbEntity
  8
TRIM
100
AcDbLine
 10
9.182094456945959
 20
-2.725684594848474
 30
0.0
 11
8.027000000000001
 21
-2.725684594848474
 31
0.0
  0
LINE
  5
1209
330
11AE
100
AcDbEntity
  8
TRIM
100
AcDbLine
 10
8.026999999999999
 20
-3.874999999999999
 30
0.0
 11
10.42
 21
-3.875
 31
0.0
  0
LINE
  5
120A
330
11AE
100
AcDbEntity
  8
TRIM
100
AcDbLine
 10
8.026999999999999
 20
-3.724999999999999
 30
0.0
 11
10.42
 21
-3.724999999999999
 31
0.0
  0
TEXT
  5
120B
330
11AE
100
AcDbEntity
  8
TRIM
100
AcDbText
 10
8.07456365306904
 20
-3.368985470670738
 30
0.0
 40
0.07
  1
PRINT APPROVED
 41
1.058889550608496
  7
SIMPLEX
 72
     5
 11
9.024034616781325
 21
-3.368985470670738
 31
0.0
100
AcDbText
  0
LINE
  5
120C
330
11AE
100
AcDbEntity
  8
TRIM
100
AcDbLine
 10
9.182094456945998
 20
-3.595684594848474
 30
0.0
 11
8.026999999999999
 21
-3.595684594848474
 31
0.0
  0
LINE
  5
120D
330
11AE
100
AcDbEntity
  8
TRIM
 62
     2
100
AcDbLine
 10
9.182094456945947
 20
-3.085684594848474
 30
0.0
 11
8.026999999999999
 21
-3.085684594848474
 31
0.0
  0
LINE
  5
120E
330
11AE
100
AcDbEntity
  8
TRIM
100
AcDbLine
 10
9.182094456945952
 20
-3.265684594848474
 30
0.0
 11
8.026999999999999
 21
-3.265684594848475
 31
0.0
  0
LINE
  5
120F
330
11AE
100
AcDbEntity
  8
TRIM
 62
     2
100
AcDbLine
 10
9.182094456945959
 20
-3.404239025796374
 30
0.0
 11
8.026999999999999
 21
-3.404239025796374
 31
0.0
  0
LINE
  5
1210
330
11AE
100
AcDbEntity
  8
TRIM
100
AcDbLine
 10
9.182094456945966
 20
-3.595684594848474
 30
0.0
 11
8.026999999999999
 21
-3.595684594848474
 31
0.0
  0
LINE
  5
1211
330
11AE
100
AcDbEntity
  8
TRIM
100
AcDbLine
 10
7.996999999999999
 20
-3.600764178482002
 30
0.0
 11
7.996999999999999
 21
-3.311528356964002
 31
0.0
  0
LINE
  5
1212
330
11AE
100
AcDbEntity
  8
TRIM
100
AcDbLine
 10
8.026999999999999
 20
-3.595684594848474
 30
0.0
 11
8.026999999999999
 21
-3.085684594848474
 31
0.0
  0
TEXT
  5
1213
330
11AE
100
AcDbEntity
  8
TRIM
100
AcDbText
 10
8.0625
 20
-3.839999999999999
 30
0.0
 40
0.08
  1
FILE:
  7
SIMPLEX
100
AcDbText
  0
LINE
  5
1214
330
11AE
100
AcDbEntity
  8
TRIM
100
AcDbLine
 10
8.026999999999999
 20
-3.874999999999996
 30
0.0
 11
8.099999999999999
 21
-3.874999999999997
 31
0.0
  0
LINE
  5
1215
330
11AE
100
AcDbEntity
  8
TRIM
100
AcDbLine
 10
8.026999999999999
 20
-3.875
 30
0.0
 11
8.026999999999999
 21
-3.724999999999999
 31
0.0
  0
LINE
  5
1216
330
11AE
100
AcDbEntity
  8
TRIM
100
AcDbLine
 10
7.996999999999999
 20
-3.920000000000002
 30
0.0
 11
7.996999999999999
 21
-3.630764178482002
 31
0.0
  0
TEXT
  5
1217
330
11AE
100
AcDbEntity
  8
TRIM
100
AcDbText
 10
8.074563653069027
 20
-3.050431039722838
 30
0.0
 40
0.07
  1
PRINT DRAWN
 41
1.047995828933661
  7
SIMPLEX
 72
     5
 11
8.81165405275237
 21
-3.050431039722838
 31
0.0
100
AcDbText
  0
TEXT
  5
1218
330
11AE
100
AcDbEntity
  8
TRIM
100
AcDbText
 10
8.074583589391938
 20
-2.867078253753203
 30
0.0
 40
0.09
  1
SCALE:
  7
SIMPLEX
100
AcDbText
  0
LINE
  5
1219
330
11AE
100
AcDbEntity
  8
TRIM
100
AcDbLine
 10
8.026999999999999
 20
-3.085684594848474
 30
0.0
 11
8.026999999999999
 21
-2.725684594848474
 31
0.0
  0
LINE
  5
121A
330
11AE
100
AcDbEntity
  8
TRIM
100
AcDbLine
 10
10.42
 20
-3.595684594848474
 30
0.0
 11
9.212094456945999
 21
-3.595684594848474
 31
0.0
  0
LINE
  5
121B
330
11AE
100
AcDbEntity
  8
TRIM
100
AcDbLine
 10
10.42
 20
-3.875
 30
0.0
 11
10.42
 21
-3.724999999999999
 31
0.0
  0
LINE
  5
121C
330
11AE
100
AcDbEntity
  8
TRIM
100
AcDbLine
 10
10.42
 20
-3.265684594848475
 30
0.0
 11
9.212094456945974
 21
-3.265684594848474
 31
0.0
  0
LINE
  5
121D
330
11AE
100
AcDbEntity
  8
TRIM
100
AcDbLine
 10
10.42
 20
-3.085684594848474
 30
0.0
 11
9.212094456945967
 21
-3.085684594848474
 31
0.0
  0
LINE
  5
121E
330
11AE
100
AcDbEntity
  8
TRIM
100
AcDbLine
 10
10.42
 20
-2.905684594848474
 30
0.0
 11
9.21209445694596
 21
-2.905684594848473
 31
0.0
  0
LINE
  5
121F
330
11AE
100
AcDbEntity
  8
TRIM
100
AcDbLine
 10
10.42
 20
-2.725684594848474
 30
0.0
 11
9.212094456945953
 21
-2.725684594848474
 31
0.0
  0
TEXT
  5
1220
330
11AE
100
AcDbEntity
  8
TRIM
100
AcDbText
 10
9.277645855643239
 20
-3.368985470670738
 30
0.0
 40
0.07
  1
DESIGN ENGINEER
  7
SIMPLEX
100
AcDbText
  0
LINE
  5
1221
330
11AE
100
AcDbEntity
  8
TRIM
 62
     2
100
AcDbLine
 10
10.41418891389197
 20
-3.404239025796374
 30
0.0
 11
9.212094456945999
 21
-3.404239025796374
 31
0.0
  0
LINE
  5
1222
330
11AE
100
AcDbEntity
  8
TRIM
100
AcDbLine
 10
9.182094456945959
 20
-2.725684594848474
 30
0.0
 11
9.182094456945998
 21
-3.595684594848474
 31
0.0
  0
LINE
  5
1223
330
11AE
100
AcDbEntity
  8
TRIM
 62
     2
100
AcDbLine
 10
8.736598448036387
 20
-3.404239025796374
 30
0.0
 11
8.736598448036385
 21
-3.595684594848474
 31
0.0
  0
LINE
  5
1224
330
11AE
100
AcDbEntity
  8
TRIM
 62
     2
100
AcDbLine
 10
8.736598448036387
 20
-3.085684594848474
 30
0.0
 11
8.736598448036387
 21
-3.265684594848474
 31
0.0
  0
LINE
  5
1225
330
11AE
100
AcDbEntity
  8
TRIM
100
AcDbLine
 10
5.279125000000023
 20
-3.281528356963997
 30
0.0
 11
6.030375000000023
 21
-3.281528356963998
 31
0.0
  0
ATTDEF
  5
1226
330
11AE
100
AcDbEntity
  8
DIM
100
AcDbText
 10
1.498750002566998
 20
-3.20694501421848
 30
0.0
 40
0.13
  1

  7
SIMPLEX
100
AcDbAttributeDefinition
  3
PART_#
  2
PART_#
 70
     0
  0
ATTDEF
  5
1227
330
11AE
100
AcDbEntity
  8
DIM
100
AcDbText
 10
1.504683745091821
 20
-3.531130609568119
 30
0.0
 40
0.13
  1

  7
SIMPLEX
100
AcDbAttributeDefinition
  3
PART_DESCRIPTION
  2
PART_DESCRIPTION
 70
     0
  0
ATTDEF
  5
1228
330
11AE
100
AcDbEntity
  8
DIM
100
AcDbText
 10
1.500000001465934
 20
-3.844457553051039
 30
0.0
 40
0.13
  1

  7
SIMPLEX
100
AcDbAttributeDefinition
  3
EXTRA_DESCRIPTION
  2
EXTRA_DESCRIPTION
 70
     0
  0
ATTDEF
  5
1229
330
11AE
100
AcDbEntity
  8
DIM
100
AcDbText
 10
5.65537500146591
 20
-3.199999998273464
 30
0.0
 40
0.1
  1

  7
SIMPLEX
 72
     4
 11
5.65537500146591
 21
-3.199999998273464
 31
0.0
100
AcDbAttributeDefinition
  3
SHEET
  2
SHEET
 70
     0
  0
ATTDEF
  5
122A
330
11AE
100
AcDbEntity
  8
DIM
100
AcDbText
 10
8.370750001651005
 20
-3.841069024870303
 30
0.0
 40
0.08
  1

  7
SIMPLEX
100
AcDbAttributeDefinition
  3
FILE_NAME
  2
FILE_NAME
 70
     0
  0
ATTDEF
  5
122B
330
11AE
100
AcDbEntity
  8
DIM
100
AcDbText
 10
8.593750001465934
 20
-2.867243860095429
 30
0.0
 40
0.08
  1

  7
SIMPLEX
100
AcDbAttributeDefinition
  3
DRAWING_SCALE
  2
SCALE
 70
     0
  0
ATTDEF
  5
122C
330
11AE
100
AcDbEntity
  8
DIM
100
AcDbText
 10
8.381799224018193
 20
-3.175684594848474
 30
0.0
 40
0.08
  1

  7
SIMPLEX
 72
     4
 11
8.381799224018193
 21
-3.175684594848474
 31
0.0
100
AcDbAttributeDefinition
  3
DATE_DRAWN
  2
DATE
 70
     0
  0
ATTDEF
  5
122D
330
11AE
100
AcDbEntity
  8
DIM
100
AcDbText
 10
8.959346452491169
 20
-3.175684594848474
 30
0.0
 40
0.08
  1

  7
SIMPLEX
 72
     4
 11
8.959346452491169
 21
-3.175684594848474
 31
0.0
100
AcDbAttributeDefinition
  3
DRAWN_BY?
  2
WHO?
 70
     0
  0
ATTDEF
  5
122E
330
11AE
100
AcDbEntity
  8
DIM
100
AcDbText
 10
8.381799224018193
 20
-3.499961810322424
 30
0.0
 40
0.08
  1

  7
SCRIPT
 72
     4
 11
8.381799224018193
 21
-3.499961810322424
 31
0.0
100
AcDbAttributeDefinition
  3
DATE_APPROVED
  2
DATE
 70
     0
  0
ATTDEF
  5
122F
330
11AE
100
AcDbEntity
  8
DIM
100
AcDbText
 10
8.959346452491192
 20
-3.499961810322424
 30
0.0
 40
0.08
  1

  7
SCRIPT
 72
     4
 11
8.959346452491192
 21
-3.499961810322424
 31
0.0
100
AcDbAttributeDefinition
  3
APPROVED_BY?
  2
WHO?
 70
     0
  0
ATTDEF
  5
1230
330
11AE
100
AcDbEntity
  8
DIM
100
AcDbText
 10
9.277645855643239
 20
-3.539961810322424
 30
0.0
 40
0.08
  1

  7
SCRIPT
 11
9.277645855643239
 21
-3.499961810322424
 31
0.0
100
AcDbAttributeDefinition
  3
ENGINEER_IN_CHARGE
  2
WHO?
 70
     0
 74
     2
  0
TEXT
  5
1231
330
11AE
100
AcDbEntity
  8
DIM
100
AcDbText
 10
9.716766296807861
 20
-3.931972942467266
 30
0.0
 40
0.04
  1
F04-0052-01 REV. 00
 72
     2
 11
10.41771867776024
 21
-3.931972942467266
 31
0.0
100
AcDbText
  0
ENDBLK
  5
1233
330
11AE
100
AcDbEntity
  8
0
100
AcDbBlockEnd
  0
BLOCK
  5
17
330
16
100
AcDbEntity
  8
0
100
AcDbBlockBegin
  2
*PAPER_SPACE20
 70
     0
 10
0.0
 20
0.0
 30
0.0
  3
*PAPER_SPACE20
  1

  0
VIEWPORT
  5
1246
330
16
100
AcDbEntity
  8
0
100
AcDbViewport
 10
5.302083773875799
 20
3.968749891115924
 30
0.0
 40
15.06639714351581
 41
8.992999745766947
 69
     0
 12
5.302083773875799
 22
3.968749891115924
 13
0.0
 23
0.0
 14
0.5
 24
0.5
 15
0.5
 25
0.5
 16
0.0
 26
0.0
 36
1.0
 17
0.0
 27
0.0
 37
0.0
 42
50.0
 43
0.0
 44
0.0
 45
8.992999745766947
 50
0.0
 51
0.0
 72
 10000
 90
    32800
  1

281
     0
 71
     1
 74
     0
110
0.0
120
0.0
130
0.0
111
1.0
121
0.0
131
0.0
112
0.0
122
1.0
132
0.0
 79
     0
146
0.0
170
     0
  0
VIEWPORT
  5
1249
330
16
100
AcDbEntity
  8
DIM
100
AcDbViewport
 10
5.263092070844685
 20
3.968749894964274
 30
0.0
 40
10.60574542376373
 41
8.042266702318844
 69
     0
 12
11.71535711222172
 22
9.261276623058142
 13
0.0
 23
0.0
 14
0.03125
 24
0.03125
 15
0.25
 25
0.25
 16
0.0
 26
0.0
 36
1.0
 17
0.0
 27
0.0
 37
0.0
 42
50.0
 43
0.0
 44
0.0
 45
16.08453342532666
 50
0.0
 51
0.0
 72
 10000
 90
    33024
  1

281
     0
 71
     1
 74
     0
110
0.0
120
0.0
130
0.0
111
1.0
121
0.0
131
0.0
112
0.0
122
1.0
132
0.0
 79
     0
146
0.0
170
     0
  0
ENDBLK
  5
18
330
16
100
AcDbEntity
  8
0
100
AcDbBlockEnd
  0
BLOCK
  5
150C
330
1501
100
AcDbEntity
  8
0
100
AcDbBlockBegin
  2
*D21
 70
     1
 10
0.0
 20
0.0
 30
0.0
  3
*D21
  1

  0
LINE
  5
1546
330
1501
100
AcDbEntity
  8
DIM
 62
     0
370
    -2
100
AcDbLine
 10
-8.996527595603895
 20
5.597682097085288
 30
0.0
 11
-8.996527595603895
 21
4.516029651419746
 31
0.0
  0
LINE
  5
1547
330
1501
100
AcDbEntity
  8
DIM
 62
     0
370
    -2
100
AcDbLine
 10
0.5534409601547985
 20
6.063283657972825
 30
0.0
 11
0.5534409601547984
 21
4.516029651419746
 31
0.0
  0
LINE
  5
1548
330
1501
100
AcDbEntity
  8
DIM
 62
     0
370
    -2
100
AcDbLine
 10
-8.896527595603895
 20
4.578529651419746
 30
0.0
 11
-4.938209984391215
 21
4.578529651419746
 31
0.0
  0
LINE
  5
1549
330
1501
100
AcDbEntity
  8
DIM
 62
     0
370
    -2
100
AcDbLine
 10
0.4534409601547984
 20
4.578529651419746
 30
0.0
 11
-3.504876651057882
 21
4.578529651419746
 31
0.0
  0
SOLID
  5
154A
330
1501
100
AcDbEntity
  8
DIM
 62
     0
100
AcDbTrace
 10
-8.896527595603895
 20
4.595196318086412
 30
0.0
 11
-8.896527595603895
 21
4.561862984753079
 31
0.0
 12
-8.996527595603895
 22
4.578529651419746
 32
0.0
 13
-8.996527595603895
 23
4.578529651419746
 33
0.0
  0
SOLID
  5
154B
330
1501
100
AcDbEntity
  8
DIM
 62
     0
100
AcDbTrace
 10
0.4534409601547984
 20
4.595196318086412
 30
0.0
 11
0.4534409601547984
 21
4.561862984753079
 31
0.0
 12
0.5534409601547984
 22
4.578529651419746
 32
0.0
 13
0.5534409601547984
 23
4.578529651419746
 33
0.0
  0
MTEXT
  5
154C
330
1501
100
AcDbEntity
  8
DIM
 62
     0
100
AcDbMText
 10
-4.221543317724548
 20
4.578529651419746
 30
0.0
 40
0.1
 41
0.0
 71
     5
 72
     1
  1
\A1;9.55 [242.6 mm]
 73
     1
 44
1.0
  0
POINT
  5
154D
330
1501
100
AcDbEntity
  8
DEFPOINTS
 62
     0
100
AcDbPoint
 10
-8.996527595603895
 20
5.697682097085288
 30
0.0
  0
POINT
  5
154E
330
1501
100
AcDbEntity
  8
DEFPOINTS
 62
     0
100
AcDbPoint
 10
0.5534409601547985
 20
6.163283657972825
 30
0.0
  0
POINT
  5
154F
330
1501
100
AcDbEntity
  8
DEFPOINTS
 62
     0
100
AcDbPoint
 10
0.5534409601547984
 20
4.578529651419746
 30
0.0
  0
ENDBLK
  5
150D
330
1501
100
AcDbEntity
  8
0
100
AcDbBlockEnd
  0
BLOCK
  5
1519
330
150E
100
AcDbEntity
  8
0
100
AcDbBlockBegin
  2
*D22
 70
     1
 10
0.0
 20
0.0
 30
0.0
  3
*D22
  1

  0
LINE
  5
1550
330
150E
100
AcDbEntity
  8
DIM
 62
     0
370
    -2
100
AcDbLine
 10
-8.971527595603886
 20
5.572682097085287
 30
0.0
 11
-9.606738096531445
 21
5.572682097085287
 31
0.0
  0
LINE
  5
1551
330
150E
100
AcDbEntity
  8
DIM
 62
     0
370
    -2
100
AcDbLine
 10
-8.971527595603886
 20
8.022682097085304
 30
0.0
 11
-9.606738096531445
 21
8.022682097085304
 31
0.0
  0
LINE
  5
1552
330
150E
100
AcDbEntity
  8
DIM
 62
     0
370
    -2
100
AcDbLine
 10
-9.544238096531445
 20
5.672682097085287
 30
0.0
 11
-9.544238096531445
 21
6.128232032372128
 31
0.0
  0
LINE
  5
1553
330
150E
100
AcDbEntity
  8
DIM
 62
     0
370
    -2
100
AcDbLine
 10
-9.544238096531445
 20
7.922682097085305
 30
0.0
 11
-9.544238096531445
 21
7.466327270467365
 31
0.0
  0
SOLID
  5
1554
330
150E
100
AcDbEntity
  8
DIM
 62
     0
100
AcDbTrace
 10
-9.560904763198113
 20
5.672682097085287
 30
0.0
 11
-9.527571429864778
 21
5.672682097085287
 31
0.0
 12
-9.544238096531445
 22
5.572682097085287
 32
0.0
 13
-9.544238096531445
 23
5.572682097085287
 33
0.0
  0
SOLID
  5
1555
330
150E
100
AcDbEntity
  8
DIM
 62
     0
100
AcDbTrace
 10
-9.560904763198113
 20
7.922682097085305
 30
0.0
 11
-9.527571429864778
 21
7.922682097085305
 31
0.0
 12
-9.544238096531445
 22
8.022682097085304
 32
0.0
 13
-9.544238096531445
 23
8.022682097085304
 33
0.0
  0
MTEXT
  5
1556
330
150E
100
AcDbEntity
  8
DIM
 62
     0
100
AcDbMText
 10
-9.544238096531447
 20
6.797279651419746
 30
0.0
 40
0.1
 41
0.0
 71
     5
 72
     1
  1
\A1;2.45 [62.2 mm]
 11
0.0000000000000001
 21
1.0
 31
0.0
 73
     1
 44
1.0
  0
POINT
  5
1557
330
150E
100
AcDbEntity
  8
DEFPOINTS
 62
     0
100
AcDbPoint
 10
-8.871527595603886
 20
5.572682097085287
 30
0.0
  0
POINT
  5
1558
330
150E
100
AcDbEntity
  8
DEFPOINTS
 62
     0
100
AcDbPoint
 10
-8.871527595603886
 20
8.022682097085304
 30
0.0
  0
POINT
  5
1559
330
150E
100
AcDbEntity
  8
DEFPOINTS
 62
     0
100
AcDbPoint
 10
-9.544238096531445
 20
8.022682097085304
 30
0.0
  0
ENDBLK
  5
151A
330
150E
100
AcDbEntity
  8
0
100
AcDbBlockEnd
  0
BLOCK
  5
1526
330
151B
100
AcDbEntity
  8
0
100
AcDbBlockBegin
  2
*D23
 70
     1
 10
0.0
 20
0.0
 30
0.0
  3
*D23
  1

  0
LINE
  5
155A
330
151B
100
AcDbEntity
  8
DIM
 62
     0
370
    -2
100
AcDbLine
 10
-8.02800635165973
 20
5.882480918985142
 30
0.0
 11
-9.262988096531447
 21
5.882480918985142
 31
0.0
  0
LINE
  5
155B
330
151B
100
AcDbEntity
  8
DIM
 62
     0
370
    -2
100
AcDbLine
 10
-8.028006351659952
 20
7.712883275185458
 30
0.0
 11
-9.262988096531447
 21
7.712883275185458
 31
0.0
  0
LINE
  5
155C
330
151B
100
AcDbEntity
  8
DIM
 62
     0
370
    -2
100
AcDbLine
 10
-9.200488096531447
 20
5.982480918985142
 30
0.0
 11
-9.200488096531447
 21
6.13815828756149
 31
0.0
  0
LINE
  5
155D
330
151B
100
AcDbEntity
  8
DIM
 62
     0
370
    -2
100
AcDbLine
 10
-9.200488096531447
 20
7.612883275185458
 30
0.0
 11
-9.200488096531447
 21
7.457205906609108
 31
0.0
  0
SOLID
  5
155E
330
151B
100
AcDbEntity
  8
DIM
 62
     0
100
AcDbTrace
 10
-9.217154763198115
 20
5.982480918985142
 30
0.0
 11
-9.18382142986478
 21
5.982480918985142
 31
0.0
 12
-9.200488096531447
 22
5.882480918985142
 32
0.0
 13
-9.200488096531447
 23
5.882480918985142
 33
0.0
  0
SOLID
  5
155F
330
151B
100
AcDbEntity
  8
DIM
 62
     0
100
AcDbTrace
 10
-9.217154763198115
 20
7.612883275185458
 30
0.0
 11
-9.18382142986478
 21
7.612883275185458
 31
0.0
 12
-9.200488096531447
 22
7.712883275185458
 32
0.0
 13
-9.200488096531447
 23
7.712883275185458
 33
0.0
  0
MTEXT
  5
1560
330
151B
100
AcDbEntity
  8
DIM
 62
     0
100
AcDbMText
 10
-9.200488096531449
 20
6.797682097085298
 30
0.0
 40
0.1
 41
0.0
 71
     5
 72
     1
  1
\A1;1.83 [46.5 mm]
 11
0.0000000000000001
 21
1.0
 31
0.0
 73
     1
 44
1.0
  0
POINT
  5
1561
330
151B
100
AcDbEntity
  8
DEFPOINTS
 62
     0
100
AcDbPoint
 10
-7.928006351659731
 20
5.882480918985142
 30
0.0
  0
POINT
  5
1562
330
151B
100
AcDbEntity
  8
DEFPOINTS
 62
     0
100
AcDbPoint
 10
-7.928006351659952
 20
7.712883275185458
 30
0.0
  0
POINT
  5
1563
330
151B
100
AcDbEntity
  8
DEFPOINTS
 62
     0
100
AcDbPoint
 10
-9.200488096531447
 20
7.712883275185458
 30
0.0
  0
ENDBLK
  5
1527
330
151B
100
AcDbEntity
  8
0
100
AcDbBlockEnd
  0
BLOCK
  5
1583
330
156F
100
AcDbEntity
  8
0
100
AcDbBlockBegin
  2
TB_ADDON
 70
     2
 10
0.0
 20
0.0
 30
0.0
  3
TB_ADDON
  1

  0
LINE
  5
1570
330
156F
100
AcDbEntity
  8
TRIM
100
AcDbLine
 10
7.996999999999999
 20
0.029999999999998
 30
0.0
 11
7.996999999999999
 21
0.412985821517998
 31
0.0
  0
TEXT
  5
1571
330
156F
100
AcDbEntity
  8
TRIM
100
AcDbText
 10
3.018641921597364
 20
0.1318807339448109
 30
0.0
 40
0.16
  1
DESCR:
 41
0.9
  7
SIMPLEX
100
AcDbText
  0
TEXT
  5
1572
330
156F
100
AcDbEntity
  8
TRIM
100
AcDbText
 10
0.1101805231206979
 20
0.131880733944862
 30
0.0
 40
0.16
  1
ITEM:
 41
0.9
  7
SIMPLEX
100
AcDbText
  0
ATTDEF
  5
1573
330
156F
100
AcDbEntity
  8
DIM
100
AcDbText
 10
0.7153226045877175
 20
0.1408856169752868
 30
0.0
 40
0.13
  1

  7
SIMPLEX
100
AcDbAttributeDefinition
  3
PART_#
  2
PART_#
 70
     0
  0
ATTDEF
  5
1574
330
156F
100
AcDbEntity
  8
DIM
100
AcDbText
 10
3.897972150850969
 20
0.1417945715108133
 30
0.0
 40
0.13
  1

  7
SIMPLEX
100
AcDbAttributeDefinition
  3
PART_DESCRIPTION
  2
PART_DESCRIPTION
 70
     0
  0
ATTDEF
  5
1575
330
156F
100
AcDbEntity
  8
DIM
100
AcDbText
 10
2.477072168477677
 20
0.083507948358573
 30
0.0
 40
0.1
  1

  7
SIMPLEX
 72
     1
 11
2.477072168477677
 21
0.083507948358573
 31
0.0
100
AcDbAttributeDefinition
  3
SHEET_#
  2
#_OF_#
 70
     0
  0
LINE
  5
1576
330
156F
100
AcDbEntity
  8
TRIM
100
AcDbLine
 10
2.94109456583225
 20
0.4129858215180016
 30
0.0
 11
2.941094565832298
 21
0.0300000000000016
 31
0.0
  0
LINE
  5
1577
330
156F
100
AcDbEntity
  8
TRIM
100
AcDbLine
 10
2.91109456583225
 20
0.4129858215180016
 30
0.0
 11
2.911094565832298
 21
0.0300000000000016
 31
0.0
  0
LINE
  5
1578
330
156F
100
AcDbEntity
  8
TRIM
100
AcDbLine
 10
2.019143811352817
 20
0.4129858215180016
 30
0.0
 11
2.019143811352866
 21
0.0300000000000016
 31
0.0
  0
LINE
  5
1579
330
156F
100
AcDbEntity
  8
TRIM
100
AcDbLine
 10
2.049143811352816
 20
0.4129858215180016
 30
0.0
 11
2.049143811352866
 21
0.0300000000000016
 31
0.0
  0
TEXT
  5
157A
330
156F
100
AcDbEntity
  8
TRIM
100
AcDbText
 10
2.246095856974888
 20
0.2640640448954761
 30
0.0
 40
0.1
  1
SHEET
  7
SIMPLEX
100
AcDbText
  0
LINE
  5
157B
330
156F
100
AcDbEntity
  8
TRIM
100
AcDbLine
 10
2.049143811352865
 20
0.0300000000000016
 30
0.0
 11
2.911094565832298
 21
0.0300000000000016
 31
0.0
  0
LINE
  5
157C
330
156F
100
AcDbEntity
  8
TRIM
100
AcDbLine
 10
2.049143811352816
 20
0.412985821518002
 30
0.0
 11
2.91109456583225
 21
0.4129858215180016
 31
0.0
  0
LINE
  5
157D
330
156F
100
AcDbEntity
  8
TRIM
100
AcDbLine
 10
0.0300000000000003
 20
0.4129858215180025
 30
0.0
 11
0.0299999999999994
 21
0.0300000000000016
 31
0.0
  0
LINE
  5
157E
330
156F
100
AcDbEntity
  8
TRIM
100
AcDbLine
 10
0.0300000000000491
 20
0.412985821518002
 30
0.0
 11
2.019143811352817
 21
0.412985821518002
 31
0.0
  0
LINE
  5
157F
330
156F
100
AcDbEntity
  8
TRIM
100
AcDbLine
 10
0.0299999999999994
 20
0.0300000000000016
 30
0.0
 11
2.019143811352865
 21
0.0300000000000016
 31
0.0
  0
LINE
  5
1580
330
156F
100
AcDbEntity
  8
TRIM
100
AcDbLine
 10
0.0300000000000491
 20
0.4429858215180018
 30
0.0
 11
7.996999999999999
 21
0.442985821518001
 31
0.0
  0
LINE
  5
1581
330
156F
100
AcDbEntity
  8
TRIM
100
AcDbLine
 10
2.94109456583225
 20
0.4129858215180016
 30
0.0
 11
7.996999999999999
 21
0.4129858215180012
 31
0.0
  0
LINE
  5
1582
330
156F
100
AcDbEntity
  8
TRIM
100
AcDbLine
 10
2.941094565832298
 20
0.0300000000000016
 30
0.0
 11
7.996999999999999
 21
0.0300000000000011
 31
0.0
  0
ENDBLK
  5
1584
330
156F
100
AcDbEntity
  8
0
100
AcDbBlockEnd
  0
ENDSEC
  0
SECTION
  2
ENTITIES
  0
INSERT
  5
1234
330
19
100
AcDbEntity
  8
DIM
100
AcDbBlockReference
 66
     1
  2
tft_aprlist
 10
-9.734237736532751
 20
5.346539481333162
 30
0.0
  0
ATTRIB
  5
1235
330
1234
100
AcDbEntity
  8
DIM
100
AcDbText
 10
-8.235487733965753
 20
2.139594467114682
 30
0.0
 40
0.13
  1
FS-3STACK
  7
SIMPLEX
100
AcDbAttribute
  2
PART_#
 70
     0
  0
ATTRIB
  5
1236
330
1234
100
AcDbEntity
  8
DIM
100
AcDbText
 10
-8.22955399144093
 20
1.815408871765042
 30
0.0
 40
0.13
  1
NEW YORK STACK TIP - 1.5"NH INLET
  7
SIMPLEX
100
AcDbAttribute
  2
PART_DESCRIPTION
 70
     0
  0
ATTRIB
  5
1237
330
1234
100
AcDbEntity
  8
DIM
100
AcDbText
 10
-8.234237735066816
 20
1.502081928282122
 30
0.0
 40
0.13
  1
TIP SIZES 1-1/4  1-1/8  1" PER NFPA 1901
  7
SIMPLEX
100
AcDbAttribute
  2
EXTRA_DESCRIPTION
 70
     0
  0
ATTRIB
  5
1238
330
1234
100
AcDbEntity
  8
DIM
100
AcDbText
 10
-4.314577020781126
 20
2.096539483059697
 30
0.0
 40
0.1
  1
1 OF 1
  7
SIMPLEX
 72
     4
 11
-4.078862735066841
 21
2.146539483059697
 31
0.0
100
AcDbAttribute
  2
SHEET
 70
     0
  0
ATTRIB
  5
1239
330
1234
100
AcDbEntity
  8
DIM
100
AcDbText
 10
-1.363487734881745
 20
1.505470456462859
 30
0.0
 40
0.08
  1
F\FIN & SUB\FS3STACK
  7
SIMPLEX
100
AcDbAttribute
  2
FILE_NAME
 70
     0
  0
ATTRIB
  5
123A
330
1234
100
AcDbEntity
  8
DIM
100
AcDbText
 10
-1.140487735066816
 20
2.479295621237733
 30
0.0
 40
0.08
  1
FULL
  7
SIMPLEX
100
AcDbAttribute
  2
SCALE
 70
     0
  0
ATTRIB
  5
123B
330
1234
100
AcDbEntity
  8
DIM
100
AcDbText
 10
-1.615295655371701
 20
2.136569172198973
 30
0.0
 40
0.08
  1
9/29/98
  7
SIMPLEX
 72
     4
 11
-1.352438512514558
 21
2.170854886484687
 31
0.0
100
AcDbAttribute
  2
DATE
 70
     0
  0
ATTRIB
  5
123C
330
1234
100
AcDbEntity
  8
DIM
100
AcDbText
 10
-0.8796531888034863
 20
2.130854886484687
 30
0.0
 40
0.08
  1
MBJ
  7
SIMPLEX
 72
     4
 11
-0.7748912840415816
 21
2.170854886484687
 31
0.0
100
AcDbAttribute
  2
WHO?
 70
     0
  0
ATTRIB
  5
123D
330
1234
100
AcDbEntity
  8
DIM
100
AcDbText
 10
-1.622914702990748
 20
1.812291956725023
 30
0.0
 40
0.08
  1
9/27/04
  7
SCRIPT
 72
     4
 11
-1.352438512514558
 21
1.846577671010738
 31
0.0
100
AcDbAttribute
  2
DATE
 70
     0
  0
ATTRIB
  5
123E
330
1234
100
AcDbEntity
  8
DIM
100
AcDbText
 10
-0.883462712612987
 20
1.829434813867881
 30
0.0
 40
0.08
  1
JAF
  7
SCRIPT
 72
     4
 11
-0.7748912840415585
 21
1.846577671010738
 31
0.0
100
AcDbAttribute
  2
WHO?
 70
     0
  0
ATTRIB
  5
123F
330
1234
100
AcDbEntity
  8
DIM
100
AcDbText
 10
-0.456591880889512
 20
1.806577671010738
 30
0.0
 40
0.08
  1
Robert W. Steingass
  7
SCRIPT
 11
-0.456591880889512
 21
1.846577671010738
 31
0.0
100
AcDbAttribute
  2
WHO?
 70
     0
 74
     2
  0
SEQEND
  5
1240
330
1234
100
AcDbEntity
  8
DIM
  0
LINE
  5
13E7
330
19
100
AcDbEntity
  8
PART
100
AcDbLine
 10
-2.736559039845204
 20
7.885182097085309
 30
0.0
 11
-3.044285373406488
 21
7.599305305981761
 31
0.0
  0
LINE
  5
13E8
330
19
100
AcDbEntity
  8
PART
100
AcDbLine
 10
-2.736559039845204
 20
5.710182097085283
 30
0.0
 11
-3.04428537340649
 21
5.996058888188832
 31
0.0
  0
ARC
  5
13EA
330
19
100
AcDbEntity
  8
PART
100
AcDbCircle
 10
-5.004059039845209
 20
7.960182097085304
 30
0.0
 40
0.0625
100
AcDbArc
 50
0.0
 51
90.0
  0
ARC
  5
13EB
330
19
100
AcDbEntity
  8
PART
100
AcDbCircle
 10
-5.596559039845203
 20
7.897682097085304
 30
0.0
 40
0.125
100
AcDbArc
 50
90.0
 51
180.0
  0
ARC
  5
13EC
330
19
100
AcDbEntity
  8
PART
100
AcDbCircle
 10
-8.871527595603886
 20
7.897682097085304
 30
0.0
 40
0.125
100
AcDbArc
 50
90.0
 51
180.0
  0
ARC
  5
13ED
330
19
100
AcDbEntity
  8
PART
100
AcDbCircle
 10
-8.279027595603885
 20
7.960182097085304
 30
0.0
 40
0.0625
100
AcDbArc
 50
0.0
 51
90.0
  0
ARC
  5
13EE
330
19
100
AcDbEntity
  8
PART
100
AcDbCircle
 10
-7.91129463945348
 20
8.024337616789406
 30
0.0
 40
0.3119023697069615
100
AcDbArc
 50
191.8699542751416
 51
266.9286244595479
  0
ARC
  5
13EF
330
19
100
AcDbEntity
  8
PART
100
AcDbCircle
 10
-7.91129463945348
 20
5.571026577381186
 30
0.0
 40
0.3119023697069615
100
AcDbArc
 50
93.07137554045214
 51
168.1300457248584
  0
LINE
  5
13F0
330
19
100
AcDbEntity
  8
PART
100
AcDbLine
 10
-8.996527595603886
 20
6.797682097085289
 30
0.0
 11
-8.996527595603893
 21
5.697682097085287
 31
0.0
  0
LINE
  5
13F1
330
19
100
AcDbEntity
  8
PART
100
AcDbLine
 10
-8.216527595603885
 20
5.635182097085287
 30
0.0
 11
-8.216527595603878
 21
6.797682097085289
 31
0.0
  0
LINE
  5
13F2
330
19
100
AcDbEntity
  8
PART
100
AcDbLine
 10
-8.871527595603886
 20
5.572682097085287
 30
0.0
 11
-8.871527595603886
 21
6.797682097085289
 31
0.0
  0
LINE
  5
13F3
330
19
100
AcDbEntity
  8
PART
100
AcDbLine
 10
-8.279027595603885
 20
5.57268209708528
 30
0.0
 11
-8.279027595603885
 21
6.797682097085289
 31
0.0
  0
LINE
  5
13F4
330
19
100
AcDbEntity
  8
PART
100
AcDbLine
 10
-8.279027595603885
 20
5.572682097085287
 30
0.0
 11
-8.871527595603886
 21
5.572682097085287
 31
0.0
  0
ARC
  5
13F5
330
19
100
AcDbEntity
  8
PART
100
AcDbCircle
 10
-8.871527595603886
 20
5.697682097085287
 30
0.0
 40
0.125
100
AcDbArc
 50
180.0
 51
270.0
  0
ARC
  5
13F6
330
19
100
AcDbEntity
  8
PART
100
AcDbCircle
 10
-8.279027595603885
 20
5.635182097085287
 30
0.0
 40
0.0625
100
AcDbArc
 50
270.0
 51
0.0
  0
LINE
  5
13F7
330
19
100
AcDbEntity
  8
PART
100
AcDbLine
 10
-8.996527595603886
 20
6.797682097085303
 30
0.0
 11
-8.996527595603893
 21
7.897682097085304
 31
0.0
  0
LINE
  5
13F8
330
19
100
AcDbEntity
  8
PART
100
AcDbLine
 10
-8.216527595603885
 20
7.960182097085304
 30
0.0
 11
-8.216527595603878
 21
6.797682097085303
 31
0.0
  0
LINE
  5
13F9
330
19
100
AcDbEntity
  8
PART
100
AcDbLine
 10
-8.279027595603885
 20
8.022682097085311
 30
0.0
 11
-8.279027595603885
 21
6.797682097085289
 31
0.0
  0
LINE
  5
13FA
330
19
100
AcDbEntity
  8
PART
100
AcDbLine
 10
-8.871527595603886
 20
8.022682097085304
 30
0.0
 11
-8.871527595603886
 21
6.797682097085289
 31
0.0
  0
LINE
  5
13FB
330
19
100
AcDbEntity
  8
PART
100
AcDbLine
 10
-8.279027595603885
 20
8.022682097085304
 30
0.0
 11
-8.871527595603886
 21
8.022682097085304
 31
0.0
  0
LINE
  5
13FC
330
19
100
AcDbEntity
  8
PART
100
AcDbLine
 10
-5.004059039845209
 20
8.022682097085304
 30
0.0
 11
-5.596559039845203
 21
8.022682097085304
 31
0.0
  0
LINE
  5
13FD
330
19
100
AcDbEntity
  8
PART
100
AcDbLine
 10
-5.004059039845209
 20
5.572682097085287
 30
0.0
 11
-5.596559039845203
 21
5.572682097085287
 31
0.0
  0
LINE
  5
13FE
330
19
100
AcDbEntity
  8
PART
100
AcDbLine
 10
-5.999081526134048
 20
6.797682097085289
 30
0.0
 11
-5.999081526134048
 21
5.615182097085291
 31
0.0
  0
LINE
  5
13FF
330
19
100
AcDbEntity
  8
PART
100
AcDbLine
 10
-5.871559039845195
 20
6.797682097085289
 30
0.0
 11
-5.871559039845195
 21
5.615182097085291
 31
0.0
  0
LINE
  5
1400
330
19
100
AcDbEntity
  8
PART
100
AcDbLine
 10
-5.721559039845196
 20
6.797682097085296
 30
0.0
 11
-5.721559039845196
 21
5.902682097085293
 31
0.0
  0
LINE
  5
1401
330
19
100
AcDbEntity
  8
PART
100
AcDbLine
 10
-6.236183886023987
 20
5.851726547641401
 30
0.0
 11
-6.236183886023994
 21
6.797682097085289
 31
0.0
  0
LINE
  5
1402
330
19
100
AcDbEntity
  8
PART
100
AcDbLine
 10
-6.484278916968847
 20
5.928872408466514
 30
0.0
 11
-6.484278916968847
 21
6.797682097085289
 31
0.0
  0
LINE
  5
1403
330
19
100
AcDbEntity
  8
PART
100
AcDbLine
 10
-7.928006351659952
 20
5.882480918985134
 30
0.0
 11
-7.928006351659952
 21
6.797682097085289
 31
0.0
  0
LINE
  5
1404
330
19
100
AcDbEntity
  8
PART
100
AcDbLine
 10
-5.721559039845203
 20
6.797682097085289
 30
0.0
 11
-5.721559039845203
 21
5.697682097085287
 31
0.0
  0
LINE
  5
1405
330
19
100
AcDbEntity
  8
PART
100
AcDbLine
 10
-5.596559039845203
 20
5.572682097085287
 30
0.0
 11
-5.596559039845203
 21
6.797682097085289
 31
0.0
  0
LINE
  5
1406
330
19
100
AcDbEntity
  8
PART
100
AcDbLine
 10
-7.928006351659952
 20
5.882480918985134
 30
0.0
 11
-6.484278916968847
 21
5.928872408466514
 31
0.0
  0
LINE
  5
1407
330
19
100
AcDbEntity
  8
PART
100
AcDbLine
 10
-5.999081526134048
 20
5.615182097085291
 30
0.0
 11
-6.236183886023987
 21
5.851726547641401
 31
0.0
  0
ARC
  5
1408
330
19
100
AcDbEntity
  8
PART
100
AcDbCircle
 10
-6.484278916968847
 20
5.491372408466514
 30
0.0
 40
0.4375
100
AcDbArc
 50
55.45353732967432
 51
90.0
  0
LINE
  5
1409
330
19
100
AcDbEntity
  8
PART
100
AcDbLine
 10
-5.871559039845195
 20
5.902682097085293
 30
0.0
 11
-5.721559039845203
 21
5.902682097085293
 31
0.0
  0
LINE
  5
140A
330
19
100
AcDbEntity
  8
PART
100
AcDbLine
 10
-5.999081526134048
 20
5.615182097085291
 30
0.0
 11
-5.871559039845195
 21
5.615182097085291
 31
0.0
  0
ARC
  5
140B
330
19
100
AcDbEntity
  8
PART
100
AcDbCircle
 10
-5.596559039845203
 20
5.697682097085287
 30
0.0
 40
0.125
100
AcDbArc
 50
180.0
 51
270.0
  0
LINE
  5
140C
330
19
100
AcDbEntity
  8
PART
100
AcDbLine
 10
-7.928006351659952
 20
7.712883275185458
 30
0.0
 11
-6.484278916968847
 21
7.666491785704078
 31
0.0
  0
LINE
  5
140D
330
19
100
AcDbEntity
  8
PART
100
AcDbLine
 10
-7.928006351659952
 20
7.712883275185458
 30
0.0
 11
-7.928006351659952
 21
6.797682097085303
 31
0.0
  0
LINE
  5
140E
330
19
100
AcDbEntity
  8
PART
100
AcDbLine
 10
-6.484278916968847
 20
7.666491785704078
 30
0.0
 11
-6.484278916968847
 21
6.797682097085303
 31
0.0
  0
LINE
  5
140F
330
19
100
AcDbEntity
  8
PART
100
AcDbLine
 10
-6.236183886023987
 20
7.74363764652919
 30
0.0
 11
-6.236183886023994
 21
6.797682097085303
 31
0.0
  0
LINE
  5
1410
330
19
100
AcDbEntity
  8
PART
100
AcDbLine
 10
-5.721559039845196
 20
6.797682097085296
 30
0.0
 11
-5.721559039845196
 21
7.692682097085299
 31
0.0
  0
LINE
  5
1411
330
19
100
AcDbEntity
  8
PART
100
AcDbLine
 10
-5.871559039845195
 20
6.797682097085303
 30
0.0
 11
-5.871559039845195
 21
7.9801820970853
 31
0.0
  0
LINE
  5
1412
330
19
100
AcDbEntity
  8
PART
100
AcDbLine
 10
-5.999081526134048
 20
6.797682097085303
 30
0.0
 11
-5.999081526134048
 21
7.9801820970853
 31
0.0
  0
LINE
  5
1413
330
19
100
AcDbEntity
  8
PART
100
AcDbLine
 10
-5.721559039845203
 20
6.797682097085303
 30
0.0
 11
-5.721559039845203
 21
7.897682097085304
 31
0.0
  0
LINE
  5
1414
330
19
100
AcDbEntity
  8
PART
100
AcDbLine
 10
-5.596559039845203
 20
8.022682097085304
 30
0.0
 11
-5.596559039845203
 21
6.797682097085289
 31
0.0
  0
LINE
  5
1415
330
19
100
AcDbEntity
  8
PART
100
AcDbLine
 10
-5.999081526134048
 20
7.9801820970853
 30
0.0
 11
-6.236183886023987
 21
7.74363764652919
 31
0.0
  0
ARC
  5
1416
330
19
100
AcDbEntity
  8
PART
100
AcDbCircle
 10
-6.484278916968847
 20
8.103991785704078
 30
0.0
 40
0.4375
100
AcDbArc
 50
270.0
 51
304.5464626703257
  0
LINE
  5
1417
330
19
100
AcDbEntity
  8
PART
100
AcDbLine
 10
-5.871559039845195
 20
7.692682097085299
 30
0.0
 11
-5.721559039845203
 21
7.692682097085299
 31
0.0
  0
LINE
  5
1418
330
19
100
AcDbEntity
  8
PART
100
AcDbLine
 10
-5.999081526134048
 20
7.9801820970853
 30
0.0
 11
-5.871559039845195
 21
7.9801820970853
 31
0.0
  0
ARC
  5
1419
330
19
100
AcDbEntity
  8
PART
100
AcDbCircle
 10
-4.597036501400944
 20
5.643993831404635
 30
0.0
 40
0.3460942744290028
100
AcDbArc
 50
95.61353920292111
 51
174.5374589309687
  0
LINE
  5
141A
330
19
100
AcDbEntity
  8
PART
100
AcDbLine
 10
-4.941559039845209
 20
5.676940262113557
 30
0.0
 11
-4.941559039845209
 21
6.797682097085289
 31
0.0
  0
LINE
  5
141B
330
19
100
AcDbEntity
  8
PART
100
AcDbLine
 10
-5.004059039845209
 20
5.572682097085287
 30
0.0
 11
-5.004059039845202
 21
6.797682097085289
 31
0.0
  0
LINE
  5
141C
330
19
100
AcDbEntity
  8
PART
100
AcDbLine
 10
-4.941559039845209
 20
5.676940262113557
 30
0.0
 11
-4.941559039845209
 21
5.635182097085287
 31
0.0
  0
ARC
  5
141D
330
19
100
AcDbEntity
  8
PART
100
AcDbCircle
 10
-5.004059039845209
 20
5.635182097085287
 30
0.0
 40
0.0625
100
AcDbArc
 50
270.0
 51
0.0
  0
LINE
  5
141E
330
19
100
AcDbEntity
  8
PART
100
AcDbLine
 10
-4.630890776373769
 20
7.606935848150168
 30
0.0
 11
-4.630890776373771
 21
6.797682097085303
 31
0.0
  0
LINE
  5
141F
330
19
100
AcDbEntity
  8
PART
100
AcDbLine
 10
-4.941559039845209
 20
7.918423932057034
 30
0.0
 11
-4.941559039845209
 21
6.797682097085303
 31
0.0
  0
LINE
  5
1420
330
19
100
AcDbEntity
  8
PART
100
AcDbLine
 10
-5.004059039845209
 20
8.022682097085304
 30
0.0
 11
-5.004059039845206
 21
6.797682097085289
 31
0.0
  0
LINE
  5
1421
330
19
100
AcDbEntity
  8
PART
100
AcDbLine
 10
-4.630890776373767
 20
5.988428346020407
 30
0.0
 11
-4.630890776373771
 21
6.797682097085289
 31
0.0
  0
ARC
  5
1422
330
19
100
AcDbEntity
  8
PART
100
AcDbCircle
 10
-4.597036501400912
 20
7.95137036276597
 30
0.0
 40
0.3460942744290333
100
AcDbArc
 50
185.4625410690331
 51
264.3864607970726
  0
LINE
  5
1423
330
19
100
AcDbEntity
  8
PART
100
AcDbLine
 10
-4.941559039845209
 20
7.918423932057034
 30
0.0
 11
-4.941559039845209
 21
7.960182097085304
 31
0.0
  0
LINE
  5
1424
330
19
100
AcDbEntity
  8
PART
100
AcDbLine
 10
-3.044285373406523
 20
7.599305305981747
 30
0.0
 11
-3.044285373406523
 21
6.797682097085303
 31
0.0
  0
LINE
  5
1425
330
19
100
AcDbEntity
  8
PART
100
AcDbLine
 10
-3.154841336344503
 20
7.559505408792766
 30
0.0
 11
-3.154841336344503
 21
6.797682097085303
 31
0.0
  0
LINE
  5
1426
330
19
100
AcDbEntity
  8
PART
100
AcDbLine
 10
-3.154841336344503
 20
6.035858785377808
 30
0.0
 11
-3.154841336344503
 21
6.797682097085289
 31
0.0
  0
LINE
  5
1427
330
19
100
AcDbEntity
  8
PART
100
AcDbLine
 10
-3.044285373406523
 20
5.996058888188844
 30
0.0
 11
-3.044285373406523
 21
6.797682097085289
 31
0.0
  0
ARC
  5
1428
330
19
100
AcDbEntity
  8
PART
100
AcDbCircle
 10
-1.7290590398452
 20
7.96018209708529
 30
0.0
 40
0.0625
100
AcDbArc
 50
359.9999999999999
 51
90.0
  0
ARC
  5
1429
330
19
100
AcDbEntity
  8
PART
100
AcDbCircle
 10
-2.321559039845205
 20
7.89768209708529
 30
0.0
 40
0.125
100
AcDbArc
 50
90.0
 51
180.0
  0
LINE
  5
142A
330
19
100
AcDbEntity
  8
PART
100
AcDbLine
 10
-1.377830919005159
 20
7.497998603562049
 30
0.0
 11
0.0683978404885615
 21
7.455931879231226
 31
0.0
  0
LINE
  5
142B
330
19
100
AcDbEntity
  8
PART
100
AcDbLine
 10
-1.377830919005159
 20
6.097365590608543
 30
0.0
 11
0.0683978404885615
 21
6.139432314939366
 31
0.0
  0
ARC
  5
142C
330
19
100
AcDbEntity
  8
PART
100
AcDbCircle
 10
-1.366559039845203
 20
5.797577424163964
 30
0.0
 40
0.3000000000000007
100
AcDbArc
 50
91.17892922172652
 51
180.0000000000003
  0
LINE
  5
142D
330
19
100
AcDbEntity
  8
PART
100
AcDbLine
 10
-2.446559039845205
 20
6.797682097085296
 30
0.0
 11
-2.446559039845205
 21
5.697682097085301
 31
0.0
  0
LINE
  5
142E
330
19
100
AcDbEntity
  8
PART
100
AcDbLine
 10
-1.6665590398452
 20
5.635182097085301
 30
0.0
 11
-1.666559039845203
 21
6.797682097085296
 31
0.0
  0
LINE
  5
142F
330
19
100
AcDbEntity
  8
PART
100
AcDbLine
 10
-2.446559039845205
 20
6.797682097085289
 30
0.0
 11
-2.446559039845205
 21
5.902682097085286
 31
0.0
  0
LINE
  5
1430
330
19
100
AcDbEntity
  8
PART
100
AcDbLine
 10
-2.596559039845203
 20
6.797682097085289
 30
0.0
 11
-2.596559039845203
 21
5.71018209708529
 31
0.0
  0
LINE
  5
1431
330
19
100
AcDbEntity
  8
PART
100
AcDbLine
 10
-2.736559039845204
 20
6.797682097085289
 30
0.0
 11
-2.736559039845204
 21
5.71018209708529
 31
0.0
  0
LINE
  5
1432
330
19
100
AcDbEntity
  8
PART
100
AcDbLine
 10
-2.321559039845205
 20
5.572682097085301
 30
0.0
 11
-2.321559039845205
 21
6.797682097085282
 31
0.0
  0
LINE
  5
1433
330
19
100
AcDbEntity
  8
PART
100
AcDbLine
 10
-1.729059039845203
 20
5.572682097085301
 30
0.0
 11
-1.729059039845211
 21
6.797682097085282
 31
0.0
  0
LINE
  5
1434
330
19
100
AcDbEntity
  8
PART
100
AcDbLine
 10
-1.7290590398452
 20
5.572682097085301
 30
0.0
 11
-2.321559039845205
 21
5.572682097085301
 31
0.0
  0
ARC
  5
1435
330
19
100
AcDbEntity
  8
PART
100
AcDbCircle
 10
-2.321559039845205
 20
5.697682097085301
 30
0.0
 40
0.125
100
AcDbArc
 50
180.0
 51
270.0
  0
LINE
  5
1436
330
19
100
AcDbEntity
  8
PART
100
AcDbLine
 10
-2.596559039845203
 20
5.902682097085286
 30
0.0
 11
-2.446559039845208
 21
5.902682097085286
 31
0.0
  0
LINE
  5
1437
330
19
100
AcDbEntity
  8
PART
100
AcDbLine
 10
-2.736559039845204
 20
5.710182097085283
 30
0.0
 11
-2.596559039845203
 21
5.710182097085283
 31
0.0
  0
ARC
  5
1438
330
19
100
AcDbEntity
  8
PART
100
AcDbCircle
 10
-1.7290590398452
 20
5.635182097085301
 30
0.0
 40
0.0625
100
AcDbArc
 50
270.0
 51
0.0000000000001018
  0
LINE
  5
1439
330
19
100
AcDbEntity
  8
PART
100
AcDbLine
 10
-1.7290590398452
 20
8.02268209708529
 30
0.0
 11
-2.321559039845205
 21
8.02268209708529
 31
0.0
  0
LINE
  5
143A
330
19
100
AcDbEntity
  8
PART
100
AcDbLine
 10
-2.446559039845205
 20
6.797682097085296
 30
0.0
 11
-2.446559039845205
 21
7.89768209708529
 31
0.0
  0
LINE
  5
143B
330
19
100
AcDbEntity
  8
PART
100
AcDbLine
 10
-2.736559039845204
 20
6.797682097085303
 30
0.0
 11
-2.736559039845204
 21
7.885182097085301
 31
0.0
  0
LINE
  5
143C
330
19
100
AcDbEntity
  8
PART
100
AcDbLine
 10
-2.596559039845203
 20
6.797682097085303
 30
0.0
 11
-2.596559039845203
 21
7.885182097085301
 31
0.0
  0
LINE
  5
143D
330
19
100
AcDbEntity
  8
PART
100
AcDbLine
 10
-2.446559039845205
 20
6.797682097085303
 30
0.0
 11
-2.446559039845205
 21
7.692682097085306
 31
0.0
  0
LINE
  5
143E
330
19
100
AcDbEntity
  8
PART
100
AcDbLine
 10
-2.321559039845205
 20
8.02268209708529
 30
0.0
 11
-2.321559039845205
 21
6.797682097085282
 31
0.0
  0
LINE
  5
143F
330
19
100
AcDbEntity
  8
PART
100
AcDbLine
 10
-2.596559039845203
 20
7.692682097085306
 30
0.0
 11
-2.446559039845208
 21
7.692682097085306
 31
0.0
  0
LINE
  5
1440
330
19
100
AcDbEntity
  8
PART
100
AcDbLine
 10
-2.736559039845204
 20
7.885182097085309
 30
0.0
 11
-2.596559039845203
 21
7.885182097085309
 31
0.0
  0
LINE
  5
1441
330
19
100
AcDbEntity
  8
PART
100
AcDbLine
 10
-1.377830919005159
 20
7.497998603562049
 30
0.0
 11
-1.377830919005159
 21
6.797682097085296
 31
0.0
  0
LINE
  5
1442
330
19
100
AcDbEntity
  8
PART
100
AcDbLine
 10
-1.6665590398452
 20
7.96018209708529
 30
0.0
 11
-1.666559039845203
 21
6.797682097085296
 31
0.0
  0
LINE
  5
1443
330
19
100
AcDbEntity
  8
PART
100
AcDbLine
 10
-1.729059039845203
 20
8.02268209708529
 30
0.0
 11
-1.729059039845211
 21
6.797682097085282
 31
0.0
  0
LINE
  5
1444
330
19
100
AcDbEntity
  8
PART
100
AcDbLine
 10
-1.377830919005159
 20
6.097365590608543
 30
0.0
 11
-1.377830919005159
 21
6.797682097085296
 31
0.0
  0
ARC
  5
1445
330
19
100
AcDbEntity
  8
PART
100
AcDbCircle
 10
-1.366559039845203
 20
7.797786770006627
 30
0.0
 40
0.3000000000000007
100
AcDbArc
 50
179.9999999999996
 51
268.8210707782734
  0
ARC
  5
1446
330
19
100
AcDbEntity
  8
PART
100
AcDbCircle
 10
0.3964597641468366
 20
6.175107986456044
 30
0.0
 40
0.1574258893707424
100
AcDbArc
 50
217.1815176033089
 51
355.692431807967
  0
LINE
  5
1447
330
19
100
AcDbEntity
  8
PART
100
AcDbLine
 10
0.5534409601547985
 20
6.797682097085303
 30
0.0
 11
0.5534409601547985
 21
7.43208053619784
 31
0.0
  0
LINE
  5
1448
330
19
100
AcDbEntity
  8
PART
100
AcDbLine
 10
0.0683978404885615
 20
7.455931879231226
 30
0.0
 11
0.0683978404885615
 21
6.797682097085296
 31
0.0
  0
LINE
  5
1449
330
19
100
AcDbEntity
  8
PART
100
AcDbLine
 10
0.2710346370217813
 20
7.515395306563728
 30
0.0
 11
0.2710346370217884
 21
6.797682097085296
 31
0.0
  0
LINE
  5
144A
330
19
100
AcDbEntity
  8
PART
100
AcDbLine
 10
0.5534409601547985
 20
6.797682097085289
 30
0.0
 11
0.5534409601547985
 21
6.163283657972751
 31
0.0
  0
ARC
  5
144B
330
19
100
AcDbEntity
  8
PART
100
AcDbCircle
 10
0.0683978404885615
 20
5.764432314939366
 30
0.0
 40
0.3749999999999947
100
AcDbArc
 50
57.29152481418185
 51
90.0
  0
LINE
  5
144C
330
19
100
AcDbEntity
  8
PART
100
AcDbLine
 10
0.2710346370217813
 20
6.079968887606863
 30
0.0
 11
0.2710346370217884
 21
6.797682097085296
 31
0.0
  0
LINE
  5
144D
330
19
100
AcDbEntity
  8
PART
100
AcDbLine
 10
0.0683978404885615
 20
6.139432314939366
 30
0.0
 11
0.0683978404885615
 21
6.797682097085296
 31
0.0
  0
ARC
  5
144E
330
19
100
AcDbEntity
  8
PART
100
AcDbCircle
 10
0.0683978404885615
 20
7.830931879231226
 30
0.0
 40
0.3749999999999947
100
AcDbArc
 50
270.0
 51
302.7084751858181
  0
ARC
  5
144F
330
19
100
AcDbEntity
  8
PART
100
AcDbCircle
 10
0.3964597641468366
 20
7.420256207714547
 30
0.0
 40
0.1574258893707424
100
AcDbArc
 50
4.307568192032977
 51
142.8184823966911
  0
LINE
  5
1450
330
19
100
AcDbEntity
  8
PART
100
AcDbLine
 10
-4.630890776373776
 20
5.988428346020405
 30
0.0
 11
-3.1548413363445
 21
6.03585878537781
 31
0.0
  0
LINE
  5
1451
330
19
100
AcDbEntity
  8
PART
100
AcDbLine
 10
-4.630890776373776
 20
7.606935848150172
 30
0.0
 11
-3.154841336344503
 21
7.559505408792766
 31
0.0
  0
INSERT
  5
1452
330
19
100
AcDbEntity
  8
PART
100
AcDbBlockReference
  2
A$C4F0D77C9
 10
-3.154841302500159
 20
5.996058900907998
 30
0.0
  0
LINE
  5
1453
330
19
100
AcDbEntity
  8
PART
 62
     2
100
AcDbLine
 10
-6.484278916968847
 20
6.511682097085317
 30
0.0
 11
-6.484278916968847
 21
7.101738384770433
 31
0.0
  0
LINE
  5
1454
330
19
100
AcDbEntity
  8
PART
 62
     2
100
AcDbLine
 10
-3.168191837434108
 20
6.511682097085294
 30
0.0
 11
-3.168191837434108
 21
7.10173838477041
 31
0.0
  0
LINE
  5
1455
330
19
100
AcDbEntity
  8
PART
 62
     2
100
AcDbLine
 10
0.0683978404885615
 20
6.511682097085301
 30
0.0
 11
0.0683978404885615
 21
7.101738384770417
 31
0.0
  0
POINT
  5
1456
330
19
100
AcDbEntity
  8
DIM
  6
ByBlock
 62
     2
100
AcDbPoint
 10
-0.0036021595114342
 20
6.439682097085299
 30
0.0
  0
POINT
  5
1457
330
19
100
AcDbEntity
  8
DIM
  6
ByBlock
 62
     2
100
AcDbPoint
 10
-0.0036021595114342
 20
7.17373838477042
 30
0.0
  0
LWPOLYLINE
  5
1458
330
19
100
AcDbEntity
  8
PART
 62
     2
100
AcDbPolyline
 90
        3
 70
     0
 43
0.02
 10
0.0683978404885544
 20
6.947653953242739
 10
-0.2052021595114333
 20
6.947653953242739
 10
-1.379602159511431
 20
6.947653953242739
  0
LINE
  5
1459
330
19
100
AcDbEntity
  8
PART
 62
     2
100
AcDbLine
 10
-0.0036021595114342
 20
7.29871024092785
 30
0.0
 11
-1.307602159511436
 21
7.29871024092785
 31
0.0
  0
TEXT
  5
145A
330
19
100
AcDbEntity
  8
PART
 62
     2
100
AcDbText
 10
-1.198916796270449
 20
7.239927498088011
 30
0.0
 40
0.085
  1
100
 50
270.0
  7
ROMAND
100
AcDbText
  0
TEXT
  5
145B
330
19
100
AcDbEntity
  8
PART
 62
     2
100
AcDbText
 10
-1.340998524412551
 20
7.239927498088011
 30
0.0
 40
0.085
  1
110
 50
270.0
  7
ROMAND
100
AcDbText
  0
LINE
  5
145C
330
19
100
AcDbEntity
  8
PART
 62
     2
100
AcDbLine
 10
-1.232802159511432
 20
6.296653953242743
 30
0.0
 11
-1.232802159511432
 21
7.298710240927857
 31
0.0
  0
LINE
  5
145D
330
19
100
AcDbEntity
  8
PART
 62
     2
100
AcDbLine
 10
-1.086002159511433
 20
6.296653953242743
 30
0.0
 11
-1.086002159511433
 21
7.298710240927857
 31
0.0
  0
LINE
  5
145E
330
19
100
AcDbEntity
  8
PART
 62
     2
100
AcDbLine
 10
-1.379602159511431
 20
6.368653953242746
 30
0.0
 11
-1.379602159511431
 21
7.226710240927855
 31
0.0
  0
ARC
  5
145F
330
19
100
AcDbEntity
  8
PART
 62
     2
100
AcDbCircle
 10
-1.307602159511429
 20
7.226710240927854
 30
0.0
 40
0.072
100
AcDbArc
 50
90.0
 51
180.0
  0
TEXT
  5
1460
330
19
100
AcDbEntity
  8
PART
 62
     2
100
AcDbText
 10
-1.051466044415771
 20
7.20992749808801
 30
0.0
 40
0.085
  1
90
 50
270.0
  7
ROMAND
100
AcDbText
  0
TEXT
  5
1461
330
19
100
AcDbEntity
  8
PART
 62
     2
100
AcDbText
 10
-1.058149975088351
 20
6.903319184520153
 30
0.0
 40
0.085
  1
282
 50
270.0
  7
ROMAND
100
AcDbText
  0
TEXT
  5
1462
330
19
100
AcDbEntity
  8
PART
 62
     2
100
AcDbText
 10
-1.347682455085145
 20
6.903319184520153
 30
0.0
 40
0.085
  1
312
 50
270.0
  7
ROMAND
100
AcDbText
  0
TEXT
  5
1463
330
19
100
AcDbEntity
  8
PART
 62
     2
100
AcDbText
 10
-1.205600726943043
 20
6.903319184520153
 30
0.0
 40
0.085
  1
297
 50
270.0
  7
ROMAND
100
AcDbText
  0
LINE
  5
1464
330
19
100
AcDbEntity
  8
PART
 62
     2
100
AcDbLine
 10
-0.0684021595114395
 20
6.947653953242739
 30
0.0
 11
-0.0684021595114253
 21
7.298710240927857
 31
0.0
  0
TEXT
  5
1465
330
19
100
AcDbEntity
  8
PART
 62
     2
100
AcDbText
 10
-0.0424964625258575
 20
7.249420593893933
 30
0.0
 40
0.06
  1
PRESS.
 50
270.0
  7
ROMAND
100
AcDbText
  0
LINE
  5
1466
330
19
100
AcDbEntity
  8
PART
 62
     2
100
AcDbLine
 10
-0.3520021595114393
 20
6.296653953242743
 30
0.0
 11
-0.3520021595114393
 21
7.298710240927857
 31
0.0
  0
LWPOLYLINE
  5
1467
330
19
100
AcDbEntity
  8
PART
 62
     2
100
AcDbPolyline
 90
        3
 70
     0
 43
0.02
 10
-0.2052021595114333
 20
7.29871024092785
 10
-0.2052021595114333
 20
7.017653953242739
 10
-0.2052021595114333
 20
6.296653953242743
  0
LINE
  5
1468
330
19
100
AcDbEntity
  8
PART
 62
     2
100
AcDbLine
 10
-0.6456021595114372
 20
6.296653953242743
 30
0.0
 11
-0.6456021595114372
 21
7.298710240927857
 31
0.0
  0
LINE
  5
1469
330
19
100
AcDbEntity
  8
PART
 62
     2
100
AcDbLine
 10
-0.4988021595114312
 20
6.296653953242743
 30
0.0
 11
-0.4988021595114312
 21
7.298710240927857
 31
0.0
  0
LINE
  5
146A
330
19
100
AcDbEntity
  8
PART
 62
     2
100
AcDbLine
 10
-0.939202159511435
 20
6.296653953242743
 30
0.0
 11
-0.9392021595114421
 21
7.298710240927857
 31
0.0
  0
LINE
  5
146B
330
19
100
AcDbEntity
  8
PART
 62
     2
100
AcDbLine
 10
-0.7924021595114361
 20
6.296653953242743
 30
0.0
 11
-0.7924021595114361
 21
7.298710240927857
 31
0.0
  0
TEXT
  5
146C
330
19
100
AcDbEntity
  8
PART
 62
     2
100
AcDbText
 10
-0.3186447161751111
 20
7.20992749808801
 30
0.0
 40
0.085
  1
40
 50
270.0
  7
ROMAND
100
AcDbText
  0
TEXT
  5
146D
330
19
100
AcDbEntity
  8
PART
 62
     2
100
AcDbText
 10
-0.9059070864546576
 20
7.20992749808801
 30
0.0
 40
0.085
  1
80
 50
270.0
  7
ROMAND
100
AcDbText
  0
TEXT
  5
146E
330
19
100
AcDbEntity
  8
PART
 62
     2
100
AcDbText
 10
-0.7552926407600573
 20
7.20992749808801
 30
0.0
 40
0.085
  1
70
 50
270.0
  7
ROMAND
100
AcDbText
  0
TEXT
  5
146F
330
19
100
AcDbEntity
  8
PART
 62
     2
100
AcDbText
 10
-0.4715030901341173
 20
7.20992749808801
 30
0.0
 40
0.085
  1
50
 50
270.0
  7
ROMAND
100
AcDbText
  0
TEXT
  5
1470
330
19
100
AcDbEntity
  8
PART
 62
     2
100
AcDbText
 10
-0.6024342668010654
 20
7.20992749808801
 30
0.0
 40
0.085
  1
60
 50
270.0
  7
ROMAND
100
AcDbText
  0
TEXT
  5
1471
330
19
100
AcDbEntity
  8
PART
 62
     2
100
AcDbText
 10
-0.1639498155285928
 20
7.18901831909611
 30
0.0
 40
0.06
  1
PSI
 50
270.0
  7
ROMAND
100
AcDbText
  0
TEXT
  5
1472
330
19
100
AcDbEntity
  8
PART
 62
     2
100
AcDbText
 10
-0.325328646847705
 20
6.903319184520153
 30
0.0
 40
0.085
  1
188
 50
270.0
  7
ROMAND
100
AcDbText
  0
TEXT
  5
1473
330
19
100
AcDbEntity
  8
PART
 62
     2
100
AcDbText
 10
-0.9125910171272373
 20
6.903319184520153
 30
0.0
 40
0.085
  1
266
 50
270.0
  7
ROMAND
100
AcDbText
  0
TEXT
  5
1474
330
19
100
AcDbEntity
  8
PART
 62
     2
100
AcDbText
 10
-0.7619765714326512
 20
6.903319184520153
 30
0.0
 40
0.085
  1
249
 50
270.0
  7
ROMAND
100
AcDbText
  0
TEXT
  5
1475
330
19
100
AcDbEntity
  8
PART
 62
     2
100
AcDbText
 10
-0.478187020806697
 20
6.903319184520153
 30
0.0
 40
0.085
  1
210
 50
270.0
  7
ROMAND
100
AcDbText
  0
TEXT
  5
1476
330
19
100
AcDbEntity
  8
PART
 62
     2
100
AcDbText
 10
-0.6091181974736593
 20
6.903319184520153
 30
0.0
 40
0.085
  1
230
 50
270.0
  7
ROMAND
100
AcDbText
  0
TEXT
  5
1477
330
19
100
AcDbEntity
  8
PART
 62
     2
100
AcDbText
 10
-0.042496407205288
 20
6.886160583520823
 30
0.0
 40
0.06
  1
FLOW
 50
270.0
  7
ROMAND
100
AcDbText
  0
LINE
  5
1478
330
19
100
AcDbEntity
  8
PART
 62
     2
100
AcDbLine
 10
-0.0684021595114395
 20
6.609653953242745
 30
0.0
 11
-0.0684021595114395
 21
6.967653953242735
 31
0.0
  0
TEXT
  5
1479
330
19
100
AcDbEntity
  8
PART
 62
     2
100
AcDbText
 10
-0.1562048789092039
 20
6.874387007599214
 30
0.0
 40
0.06
  1
GPM
 50
270.0
  7
ROMAND
100
AcDbText
  0
LWPOLYLINE
  5
147A
330
19
100
AcDbEntity
  8
PART
 62
     2
100
AcDbPolyline
 90
        3
 70
     0
 43
0.02
 10
0.0683978404885544
 20
6.629653953242741
 10
-0.2052021595114404
 20
6.629653953242741
 10
-1.379602159511431
 20
6.629653953242741
  0
LINE
  5
147B
330
19
100
AcDbEntity
  8
PART
 62
     2
100
AcDbLine
 10
-0.0036021595114484
 20
6.296653953242743
 30
0.0
 11
-1.307602159511436
 21
6.296653953242743
 31
0.0
  0
TEXT
  5
147C
330
19
100
AcDbEntity
  8
PART
 62
     2
100
AcDbText
 10
-1.347682455085145
 20
6.590319184520158
 30
0.0
 40
0.085
  1
173
 50
270.0
  7
ROMAND
100
AcDbText
  0
TEXT
  5
147D
330
19
100
AcDbEntity
  8
PART
 62
     2
100
AcDbText
 10
-1.205600726943043
 20
6.590319184520158
 30
0.0
 40
0.085
  1
157
 50
270.0
  7
ROMAND
100
AcDbText
  0
ARC
  5
147E
330
19
100
AcDbEntity
  8
PART
 62
     2
100
AcDbCircle
 10
-1.307602159511429
 20
6.368653953242745
 30
0.0
 40
0.072
100
AcDbArc
 50
180.0
 51
270.0
  0
TEXT
  5
147F
330
19
100
AcDbEntity
  8
PART
 62
     2
100
AcDbText
 10
-0.1562048789092039
 20
6.561387007599211
 30
0.0
 40
0.06
  1
LBF
 50
270.0
  7
ROMAND
100
AcDbText
  0
TEXT
  5
1480
330
19
100
AcDbEntity
  8
PART
 62
     2
100
AcDbText
 10
-1.058149975088351
 20
6.590319184520158
 30
0.0
 40
0.085
  1
141
 50
270.0
  7
ROMAND
100
AcDbText
  0
TEXT
  5
1481
330
19
100
AcDbEntity
  8
PART
 62
     2
100
AcDbText
 10
-0.9125910171272515
 20
6.590319184520158
 30
0.0
 40
0.085
  1
126
 50
270.0
  7
ROMAND
100
AcDbText
  0
TEXT
  5
1482
330
19
100
AcDbEntity
  8
PART
 62
     2
100
AcDbText
 10
-0.7619765714326512
 20
6.590319184520158
 30
0.0
 40
0.085
  1
110
 50
270.0
  7
ROMAND
100
AcDbText
  0
TEXT
  5
1483
330
19
100
AcDbEntity
  8
PART
 62
     2
100
AcDbText
 10
-0.6091181974736593
 20
6.540319184520154
 30
0.0
 40
0.085
  1
94
 50
270.0
  7
ROMAND
100
AcDbText
  0
TEXT
  5
1484
330
19
100
AcDbEntity
  8
PART
 62
     2
100
AcDbText
 10
-0.478187020806697
 20
6.540319184520154
 30
0.0
 40
0.085
  1
79
 50
270.0
  7
ROMAND
100
AcDbText
  0
TEXT
  5
1485
330
19
100
AcDbEntity
  8
PART
 62
     2
100
AcDbText
 10
-0.325328646847705
 20
6.540319184520154
 30
0.0
 40
0.085
  1
63
 50
270.0
  7
ROMAND
100
AcDbText
  0
TEXT
  5
1486
330
19
100
AcDbEntity
  8
PART
 62
     2
100
AcDbText
 10
-0.042496407205288
 20
6.603067920420297
 30
0.0
 40
0.06
  1
FORCE
 50
270.0
  7
ROMAND
100
AcDbText
  0
LINE
  5
1487
330
19
100
AcDbEntity
  8
PART
 62
     2
100
AcDbLine
 10
-0.0684021595114466
 20
6.296653953242743
 30
0.0
 11
-0.0684021595114395
 21
6.629653953242741
 31
0.0
  0
LINE
  5
1488
330
19
100
AcDbEntity
  8
PART
 62
     2
100
AcDbLine
 10
0.0683978404885473
 20
6.368653953242739
 30
0.0
 11
0.0683978404885757
 21
7.226710240927853
 31
0.0
  0
ARC
  5
1489
330
19
100
AcDbEntity
  8
PART
 62
     2
100
AcDbCircle
 10
-0.0036021595114271
 20
7.226710240927854
 30
0.0
 40
0.072
100
AcDbArc
 50
359.9999999999994
 51
90.0
  0
ARC
  5
148A
330
19
100
AcDbEntity
  8
PART
 62
     2
100
AcDbCircle
 10
-0.0036021595114413
 20
6.368653953242745
 30
0.0
 40
0.072
100
AcDbArc
 50
270.0
 51
359.9999999999994
  0
LINE
  5
148B
330
19
100
AcDbEntity
  8
PART
 62
     2
100
AcDbLine
 10
-6.484278916968854
 20
6.618682097085297
 30
0.0
 11
-6.484278916968847
 21
6.976682097085294
 31
0.0
  0
TEXT
  5
148C
330
19
100
AcDbEntity
  8
PART
 62
     2
100
AcDbText
 10
-6.708881636366598
 20
6.883415151441773
 30
0.0
 40
0.06
  1
GPM
 50
270.0
  7
ROMAND
100
AcDbText
  0
TEXT
  5
148D
330
19
100
AcDbEntity
  8
PART
 62
     2
100
AcDbText
 10
-7.161794954931053
 20
6.912347328362705
 30
0.0
 40
0.085
  1
360
 50
270.0
  7
ROMAND
100
AcDbText
  0
TEXT
  5
148E
330
19
100
AcDbEntity
  8
PART
 62
     2
100
AcDbText
 10
-7.030863778264105
 20
6.912347328362705
 30
0.0
 40
0.085
  1
328
 50
270.0
  7
ROMAND
100
AcDbText
  0
TEXT
  5
148F
330
19
100
AcDbEntity
  8
PART
 62
     2
100
AcDbText
 10
-6.878005404305113
 20
6.912347328362705
 30
0.0
 40
0.085
  1
294
 50
270.0
  7
ROMAND
100
AcDbText
  0
LINE
  5
1490
330
19
100
AcDbEntity
  8
PART
 62
     2
100
AcDbLine
 10
-6.90467891696884
 20
6.305682097085302
 30
0.0
 11
-6.90467891696884
 21
7.307738384770409
 31
0.0
  0
LINE
  5
1491
330
19
100
AcDbEntity
  8
PART
 62
     2
100
AcDbLine
 10
-7.051478916968839
 20
6.305682097085302
 30
0.0
 11
-7.051478916968832
 21
7.307738384770409
 31
0.0
  0
LINE
  5
1492
330
19
100
AcDbEntity
  8
PART
 62
     2
100
AcDbLine
 10
-7.198278916968845
 20
6.305682097085302
 30
0.0
 11
-7.198278916968838
 21
7.307738384770409
 31
0.0
  0
LWPOLYLINE
  5
1493
330
19
100
AcDbEntity
  8
PART
 62
     2
100
AcDbPolyline
 90
        3
 70
     0
 43
0.02
 10
-6.757878916968842
 20
7.307738384770409
 10
-6.757878916968842
 20
7.026682097085291
 10
-6.757878916968842
 20
6.305682097085302
  0
LINE
  5
1494
330
19
100
AcDbEntity
  8
PART
 62
     2
100
AcDbLine
 10
-6.621078916968848
 20
6.618682097085297
 30
0.0
 11
-6.621078916968841
 21
6.976682097085294
 31
0.0
  0
TEXT
  5
1495
330
19
100
AcDbEntity
  8
PART
 62
     2
100
AcDbText
 10
-6.595173164662682
 20
6.895188727363382
 30
0.0
 40
0.06
  1
FLOW
 50
270.0
  7
ROMAND
100
AcDbText
  0
TEXT
  5
1496
330
19
100
AcDbEntity
  8
PART
 62
     2
100
AcDbText
 10
-7.465267774584646
 20
6.912347328362705
 30
0.0
 40
0.085
  1
415
 50
270.0
  7
ROMAND
100
AcDbText
  0
TEXT
  5
1497
330
19
100
AcDbEntity
  8
PART
 62
     2
100
AcDbText
 10
-7.314653328890059
 20
6.912347328362705
 30
0.0
 40
0.085
  1
388
 50
270.0
  7
ROMAND
100
AcDbText
  0
TEXT
  5
1498
330
19
100
AcDbEntity
  8
PART
 62
     2
100
AcDbText
 10
-7.758277484400437
 20
6.912347328362705
 30
0.0
 40
0.085
  1
464
 50
270.0
  7
ROMAND
100
AcDbText
  0
TEXT
  5
1499
330
19
100
AcDbEntity
  8
PART
 62
     2
100
AcDbText
 10
-7.61082673254576
 20
6.912347328362705
 30
0.0
 40
0.085
  1
440
 50
270.0
  7
ROMAND
100
AcDbText
  0
LINE
  5
149A
330
19
100
AcDbEntity
  8
PART
 62
     2
100
AcDbLine
 10
-7.785478916968841
 20
6.305682097085302
 30
0.0
 11
-7.785478916968834
 21
7.307738384770409
 31
0.0
  0
LINE
  5
149B
330
19
100
AcDbEntity
  8
PART
 62
     2
100
AcDbLine
 10
-7.638678916968842
 20
6.305682097085302
 30
0.0
 11
-7.638678916968842
 21
7.307738384770409
 31
0.0
  0
LINE
  5
149C
330
19
100
AcDbEntity
  8
PART
 62
     2
100
AcDbLine
 10
-7.34507891696883
 20
6.305682097085302
 30
0.0
 11
-7.345078916968837
 21
7.307738384770409
 31
0.0
  0
LINE
  5
149D
330
19
100
AcDbEntity
  8
PART
 62
     2
100
AcDbLine
 10
-7.491878916968843
 20
6.305682097085302
 30
0.0
 11
-7.491878916968836
 21
7.307738384770409
 31
0.0
  0
LINE
  5
149E
330
19
100
AcDbEntity
  8
PART
 62
     2
100
AcDbLine
 10
-7.93227891696884
 20
6.377682097085305
 30
0.0
 11
-7.932278916968826
 21
7.235738384770407
 31
0.0
  0
TEXT
  5
149F
330
19
100
AcDbEntity
  8
PART
 62
     2
100
AcDbText
 10
-7.900359212542554
 20
6.912347328362705
 30
0.0
 40
0.085
  1
487
 50
270.0
  7
ROMAND
100
AcDbText
  0
LINE
  5
14A0
330
19
100
AcDbEntity
  8
PART
 62
     2
100
AcDbLine
 10
-6.556278916968842
 20
7.307738384770409
 30
0.0
 11
-7.860278916968837
 21
7.307738384770409
 31
0.0
  0
LWPOLYLINE
  5
14A1
330
19
100
AcDbEntity
  8
PART
 62
     2
100
AcDbPolyline
 90
        3
 70
     0
 43
0.02
 10
-6.484278916968847
 20
6.951682097085296
 10
-6.757878916968842
 20
6.951682097085296
 10
-7.932278916968826
 20
6.951682097085296
  0
TEXT
  5
14A2
330
19
100
AcDbEntity
  8
PART
 62
     2
100
AcDbText
 10
-7.751593553727857
 20
7.258955641930568
 30
0.0
 40
0.085
  1
100
 50
270.0
  7
ROMAND
100
AcDbText
  0
TEXT
  5
14A3
330
19
100
AcDbEntity
  8
PART
 62
     2
100
AcDbText
 10
-7.604142801873166
 20
7.208955641930564
 30
0.0
 40
0.085
  1
90
 50
270.0
  7
ROMAND
100
AcDbText
  0
TEXT
  5
14A4
330
19
100
AcDbEntity
  8
PART
 62
     2
100
AcDbText
 10
-7.89367528186996
 20
7.258955641930568
 30
0.0
 40
0.085
  1
110
 50
270.0
  7
ROMAND
100
AcDbText
  0
ARC
  5
14A5
330
19
100
AcDbEntity
  8
PART
 62
     2
100
AcDbCircle
 10
-7.860278916968837
 20
7.235738384770406
 30
0.0
 40
0.072
100
AcDbArc
 50
90.0
 51
180.0
  0
TEXT
  5
14A6
330
19
100
AcDbEntity
  8
PART
 62
     2
100
AcDbText
 10
-6.871321473632519
 20
7.208955641930564
 30
0.0
 40
0.085
  1
40
 50
270.0
  7
ROMAND
100
AcDbText
  0
TEXT
  5
14A7
330
19
100
AcDbEntity
  8
PART
 62
     2
100
AcDbText
 10
-7.155111024258474
 20
7.208955641930564
 30
0.0
 40
0.085
  1
60
 50
270.0
  7
ROMAND
100
AcDbText
  0
TEXT
  5
14A8
330
19
100
AcDbEntity
  8
PART
 62
     2
100
AcDbText
 10
-7.024179847591511
 20
7.208955641930564
 30
0.0
 40
0.085
  1
50
 50
270.0
  7
ROMAND
100
AcDbText
  0
TEXT
  5
14A9
330
19
100
AcDbEntity
  8
PART
 62
     2
100
AcDbText
 10
-7.458583843912066
 20
7.208955641930564
 30
0.0
 40
0.085
  1
80
 50
270.0
  7
ROMAND
100
AcDbText
  0
TEXT
  5
14AA
330
19
100
AcDbEntity
  8
PART
 62
     2
100
AcDbText
 10
-7.307969398217466
 20
7.208955641930564
 30
0.0
 40
0.085
  1
70
 50
270.0
  7
ROMAND
100
AcDbText
  0
LINE
  5
14AB
330
19
100
AcDbEntity
  8
PART
 62
     2
100
AcDbLine
 10
-6.484278916968847
 20
6.951682097085289
 30
0.0
 11
-6.484278916968847
 21
7.235738384770407
 31
0.0
  0
LINE
  5
14AC
330
19
100
AcDbEntity
  8
PART
 62
     2
100
AcDbLine
 10
-6.621078916968841
 20
6.951682097085289
 30
0.0
 11
-6.621078916968841
 21
7.307738384770409
 31
0.0
  0
TEXT
  5
14AD
330
19
100
AcDbEntity
  8
PART
 62
     2
100
AcDbText
 10
-6.716626572986001
 20
7.218046462938665
 30
0.0
 40
0.06
  1
PSI
 50
270.0
  7
ROMAND
100
AcDbText
  0
TEXT
  5
14AE
330
19
100
AcDbEntity
  8
PART
 62
     2
100
AcDbText
 10
-6.595173219983266
 20
7.278448737736488
 30
0.0
 40
0.06
  1
PRESS.
 50
270.0
  7
ROMAND
100
AcDbText
  0
LINE
  5
14AF
330
19
100
AcDbEntity
  8
PART
 62
     2
100
AcDbLine
 10
-6.556278916968857
 20
6.305682097085302
 30
0.0
 11
-7.860278916968844
 21
6.305682097085302
 31
0.0
  0
LWPOLYLINE
  5
14B0
330
19
100
AcDbEntity
  8
PART
 62
     2
100
AcDbPolyline
 90
        3
 70
     0
 43
0.02
 10
-6.484278916968854
 20
6.643682097085296
 10
-6.757878916968842
 20
6.643682097085296
 10
-7.93227891696884
 20
6.643682097085296
  0
TEXT
  5
14B1
330
19
100
AcDbEntity
  8
PART
 62
     2
100
AcDbText
 10
-7.758277484400451
 20
6.579347328362707
 30
0.0
 40
0.085
  1
245
 50
270.0
  7
ROMAND
100
AcDbText
  0
TEXT
  5
14B2
330
19
100
AcDbEntity
  8
PART
 62
     2
100
AcDbText
 10
-7.900359212542554
 20
6.579347328362707
 30
0.0
 40
0.085
  1
270
 50
270.0
  7
ROMAND
100
AcDbText
  0
ARC
  5
14B3
330
19
100
AcDbEntity
  8
PART
 62
     2
100
AcDbCircle
 10
-7.860278916968837
 20
6.377682097085303
 30
0.0
 40
0.072
100
AcDbArc
 50
180.0
 51
270.0
  0
TEXT
  5
14B4
330
19
100
AcDbEntity
  8
PART
 62
     2
100
AcDbText
 10
-6.708881636366612
 20
6.57041515144177
 30
0.0
 40
0.06
  1
LBF
 50
270.0
  7
ROMAND
100
AcDbText
  0
TEXT
  5
14B5
330
19
100
AcDbEntity
  8
PART
 62
     2
100
AcDbText
 10
-7.161794954931067
 20
6.579347328362707
 30
0.0
 40
0.085
  1
147
 50
270.0
  7
ROMAND
100
AcDbText
  0
TEXT
  5
14B6
330
19
100
AcDbEntity
  8
PART
 62
     2
100
AcDbText
 10
-7.030863778264105
 20
6.579347328362707
 30
0.0
 40
0.085
  1
123
 50
270.0
  7
ROMAND
100
AcDbText
  0
TEXT
  5
14B7
330
19
100
AcDbEntity
  8
PART
 62
     2
100
AcDbText
 10
-6.878005404305113
 20
6.549347328362705
 30
0.0
 40
0.085
  1
98
 50
270.0
  7
ROMAND
100
AcDbText
  0
TEXT
  5
14B8
330
19
100
AcDbEntity
  8
PART
 62
     2
100
AcDbText
 10
-7.465267774584646
 20
6.579347328362707
 30
0.0
 40
0.085
  1
196
 50
270.0
  7
ROMAND
100
AcDbText
  0
TEXT
  5
14B9
330
19
100
AcDbEntity
  8
PART
 62
     2
100
AcDbText
 10
-7.314653328890059
 20
6.579347328362707
 30
0.0
 40
0.085
  1
172
 50
270.0
  7
ROMAND
100
AcDbText
  0
TEXT
  5
14BA
330
19
100
AcDbEntity
  8
PART
 62
     2
100
AcDbText
 10
-7.61082673254576
 20
6.579347328362707
 30
0.0
 40
0.085
  1
221
 50
270.0
  7
ROMAND
100
AcDbText
  0
TEXT
  5
14BB
330
19
100
AcDbEntity
  8
PART
 62
     2
100
AcDbText
 10
-6.595173164662696
 20
6.612096064262849
 30
0.0
 40
0.06
  1
FORCE
 50
270.0
  7
ROMAND
100
AcDbText
  0
LINE
  5
14BC
330
19
100
AcDbEntity
  8
PART
 62
     2
100
AcDbLine
 10
-6.484278916968854
 20
6.377682097085298
 30
0.0
 11
-6.484278916968854
 21
6.643682097085296
 31
0.0
  0
LINE
  5
14BD
330
19
100
AcDbEntity
  8
PART
 62
     2
100
AcDbLine
 10
-6.621078916968848
 20
6.305682097085295
 30
0.0
 11
-6.621078916968848
 21
6.643682097085296
 31
0.0
  0
ARC
  5
14BE
330
19
100
AcDbEntity
  8
PART
 62
     2
100
AcDbCircle
 10
-6.55627891696885
 20
6.377682097085296
 30
0.0
 40
0.072
100
AcDbArc
 50
270.0
 51
359.9999999999994
  0
ARC
  5
14BF
330
19
100
AcDbEntity
  8
PART
 62
     2
100
AcDbCircle
 10
-6.556278916968835
 20
7.235738384770406
 30
0.0
 40
0.072
100
AcDbArc
 50
359.9999999999994
 51
90.0
  0
LINE
  5
14C0
330
19
100
AcDbEntity
  8
PART
 62
     2
100
AcDbLine
 10
-3.168191837434108
 20
6.618682097085301
 30
0.0
 11
-3.1681918374341
 21
6.976682097085291
 31
0.0
  0
TEXT
  5
14C1
330
19
100
AcDbEntity
  8
PART
 62
     2
100
AcDbText
 10
-3.392794556831859
 20
6.883415151441769
 30
0.0
 40
0.06
  1
GPM
 50
270.0
  7
ROMAND
100
AcDbText
  0
TEXT
  5
14C2
330
19
100
AcDbEntity
  8
PART
 62
     2
100
AcDbText
 10
-3.845707875396314
 20
6.912347328362709
 30
0.0
 40
0.085
  1
291
 50
270.0
  7
ROMAND
100
AcDbText
  0
TEXT
  5
14C3
330
19
100
AcDbEntity
  8
PART
 62
     2
100
AcDbText
 10
-3.714776698729359
 20
6.912347328362709
 30
0.0
 40
0.085
  1
266
 50
270.0
  7
ROMAND
100
AcDbText
  0
TEXT
  5
14C4
330
19
100
AcDbEntity
  8
PART
 62
     2
100
AcDbText
 10
-3.561918324770367
 20
6.912347328362709
 30
0.0
 40
0.085
  1
238
 50
270.0
  7
ROMAND
100
AcDbText
  0
LINE
  5
14C5
330
19
100
AcDbEntity
  8
PART
 62
     2
100
AcDbLine
 10
-3.588591837434094
 20
6.305682097085298
 30
0.0
 11
-3.588591837434094
 21
7.307738384770406
 31
0.0
  0
LINE
  5
14C6
330
19
100
AcDbEntity
  8
PART
 62
     2
100
AcDbLine
 10
-3.7353918374341
 20
6.305682097085298
 30
0.0
 11
-3.735391837434093
 21
7.307738384770406
 31
0.0
  0
LINE
  5
14C7
330
19
100
AcDbEntity
  8
PART
 62
     2
100
AcDbLine
 10
-3.882191837434099
 20
6.305682097085298
 30
0.0
 11
-3.882191837434092
 21
7.307738384770406
 31
0.0
  0
LWPOLYLINE
  5
14C8
330
19
100
AcDbEntity
  8
PART
 62
     2
100
AcDbPolyline
 90
        3
 70
     0
 43
0.02
 10
-3.441791837434095
 20
7.307738384770406
 10
-3.441791837434095
 20
7.026682097085295
 10
-3.441791837434095
 20
6.305682097085298
  0
LINE
  5
14C9
330
19
100
AcDbEntity
  8
PART
 62
     2
100
AcDbLine
 10
-3.304991837434101
 20
6.618682097085301
 30
0.0
 11
-3.304991837434094
 21
6.976682097085291
 31
0.0
  0
TEXT
  5
14CA
330
19
100
AcDbEntity
  8
PART
 62
     2
100
AcDbText
 10
-3.279086085127943
 20
6.895188727363378
 30
0.0
 40
0.06
  1
FLOW
 50
270.0
  7
ROMAND
100
AcDbText
  0
TEXT
  5
14CB
330
19
100
AcDbEntity
  8
PART
 62
     2
100
AcDbText
 10
-4.149180695049906
 20
6.912347328362709
 30
0.0
 40
0.085
  1
336
 50
270.0
  7
ROMAND
100
AcDbText
  0
TEXT
  5
14CC
330
19
100
AcDbEntity
  8
PART
 62
     2
100
AcDbText
 10
-3.998566249355313
 20
6.912347328362709
 30
0.0
 40
0.085
  1
315
 50
270.0
  7
ROMAND
100
AcDbText
  0
TEXT
  5
14CD
330
19
100
AcDbEntity
  8
PART
 62
     2
100
AcDbText
 10
-4.442190404865698
 20
6.912347328362709
 30
0.0
 40
0.085
  1
376
 50
270.0
  7
ROMAND
100
AcDbText
  0
TEXT
  5
14CE
330
19
100
AcDbEntity
  8
PART
 62
     2
100
AcDbText
 10
-4.294739653011014
 20
6.912347328362709
 30
0.0
 40
0.085
  1
357
 50
270.0
  7
ROMAND
100
AcDbText
  0
LINE
  5
14CF
330
19
100
AcDbEntity
  8
PART
 62
     2
100
AcDbLine
 10
-4.469391837434102
 20
6.305682097085298
 30
0.0
 11
-4.469391837434095
 21
7.307738384770406
 31
0.0
  0
LINE
  5
14D0
330
19
100
AcDbEntity
  8
PART
 62
     2
100
AcDbLine
 10
-4.322591837434096
 20
6.305682097085298
 30
0.0
 11
-4.322591837434096
 21
7.307738384770406
 31
0.0
  0
LINE
  5
14D1
330
19
100
AcDbEntity
  8
PART
 62
     2
100
AcDbLine
 10
-4.028991837434091
 20
6.305682097085298
 30
0.0
 11
-4.028991837434091
 21
7.307738384770406
 31
0.0
  0
LINE
  5
14D2
330
19
100
AcDbEntity
  8
PART
 62
     2
100
AcDbLine
 10
-4.175791837434104
 20
6.305682097085298
 30
0.0
 11
-4.175791837434097
 21
7.307738384770406
 31
0.0
  0
LINE
  5
14D3
330
19
100
AcDbEntity
  8
PART
 62
     2
100
AcDbLine
 10
-4.616191837434094
 20
6.377682097085301
 30
0.0
 11
-4.616191837434087
 21
7.23573838477041
 31
0.0
  0
TEXT
  5
14D4
330
19
100
AcDbEntity
  8
PART
 62
     2
100
AcDbText
 10
-4.584272133007807
 20
6.912347328362709
 30
0.0
 40
0.085
  1
394
 50
270.0
  7
ROMAND
100
AcDbText
  0
LINE
  5
14D5
330
19
100
AcDbEntity
  8
PART
 62
     2
100
AcDbLine
 10
-3.240191837434096
 20
7.307738384770406
 30
0.0
 11
-4.544191837434091
 21
7.307738384770406
 31
0.0
  0
LWPOLYLINE
  5
14D6
330
19
100
AcDbEntity
  8
PART
 62
     2
100
AcDbPolyline
 90
        3
 70
     0
 43
0.02
 10
-3.1681918374341
 20
6.951682097085299
 10
-3.441791837434095
 20
6.951682097085299
 10
-4.616191837434087
 20
6.951682097085299
  0
TEXT
  5
14D7
330
19
100
AcDbEntity
  8
PART
 62
     2
100
AcDbText
 10
-4.435506474193111
 20
7.258955641930572
 30
0.0
 40
0.085
  1
100
 50
270.0
  7
ROMAND
100
AcDbText
  0
TEXT
  5
14D8
330
19
100
AcDbEntity
  8
PART
 62
     2
100
AcDbText
 10
-4.288055722338427
 20
7.238955641930568
 30
0.0
 40
0.085
  1
90
 50
270.0
  7
ROMAND
100
AcDbText
  0
TEXT
  5
14D9
330
19
100
AcDbEntity
  8
PART
 62
     2
100
AcDbText
 10
-4.577588202335221
 20
7.258955641930572
 30
0.0
 40
0.085
  1
110
 50
270.0
  7
ROMAND
100
AcDbText
  0
ARC
  5
14DA
330
19
100
AcDbEntity
  8
PART
 62
     2
100
AcDbCircle
 10
-4.544191837434091
 20
7.235738384770409
 30
0.0
 40
0.072
100
AcDbArc
 50
90.0
 51
180.0
  0
TEXT
  5
14DB
330
19
100
AcDbEntity
  8
PART
 62
     2
100
AcDbText
 10
-3.55523439409778
 20
7.208955641930567
 30
0.0
 40
0.085
  1
40
 50
270.0
  7
ROMAND
100
AcDbText
  0
TEXT
  5
14DC
330
19
100
AcDbEntity
  8
PART
 62
     2
100
AcDbText
 10
-3.839023944723727
 20
7.208955641930567
 30
0.0
 40
0.085
  1
60
 50
270.0
  7
ROMAND
100
AcDbText
  0
TEXT
  5
14DD
330
19
100
AcDbEntity
  8
PART
 62
     2
100
AcDbText
 10
-3.708092768056772
 20
7.208955641930567
 30
0.0
 40
0.085
  1
50
 50
270.0
  7
ROMAND
100
AcDbText
  0
TEXT
  5
14DE
330
19
100
AcDbEntity
  8
PART
 62
     2
100
AcDbText
 10
-4.14249676437732
 20
7.208955641930567
 30
0.0
 40
0.085
  1
80
 50
270.0
  7
ROMAND
100
AcDbText
  0
TEXT
  5
14DF
330
19
100
AcDbEntity
  8
PART
 62
     2
100
AcDbText
 10
-3.991882318682726
 20
7.208955641930567
 30
0.0
 40
0.085
  1
70
 50
270.0
  7
ROMAND
100
AcDbText
  0
LINE
  5
14E0
330
19
100
AcDbEntity
  8
PART
 62
     2
100
AcDbLine
 10
-3.1681918374341
 20
6.951682097085292
 30
0.0
 11
-3.1681918374341
 21
7.23573838477041
 31
0.0
  0
LINE
  5
14E1
330
19
100
AcDbEntity
  8
PART
 62
     2
100
AcDbLine
 10
-3.304991837434094
 20
6.951682097085292
 30
0.0
 11
-3.304991837434094
 21
7.307738384770406
 31
0.0
  0
TEXT
  5
14E2
330
19
100
AcDbEntity
  8
PART
 62
     2
100
AcDbText
 10
-3.400539493451255
 20
7.218046462938668
 30
0.0
 40
0.06
  1
PSI
 50
270.0
  7
ROMAND
100
AcDbText
  0
TEXT
  5
14E3
330
19
100
AcDbEntity
  8
PART
 62
     2
100
AcDbText
 10
-3.279086140448526
 20
7.278448737736485
 30
0.0
 40
0.06
  1
PRESS.
 50
270.0
  7
ROMAND
100
AcDbText
  0
LINE
  5
14E4
330
19
100
AcDbEntity
  8
PART
 62
     2
100
AcDbLine
 10
-3.24019183743411
 20
6.305682097085298
 30
0.0
 11
-4.544191837434098
 21
6.305682097085298
 31
0.0
  0
LWPOLYLINE
  5
14E5
330
19
100
AcDbEntity
  8
PART
 62
     2
100
AcDbPolyline
 90
        3
 70
     0
 43
0.02
 10
-3.168191837434108
 20
6.643682097085292
 10
-3.441791837434095
 20
6.643682097085292
 10
-4.616191837434094
 20
6.643682097085292
  0
TEXT
  5
14E6
330
19
100
AcDbEntity
  8
PART
 62
     2
100
AcDbText
 10
-4.442190404865705
 20
6.599347328362713
 30
0.0
 40
0.085
  1
199
 50
270.0
  7
ROMAND
100
AcDbText
  0
TEXT
  5
14E7
330
19
100
AcDbEntity
  8
PART
 62
     2
100
AcDbText
 10
-4.584272133007807
 20
6.599347328362713
 30
0.0
 40
0.085
  1
219
 50
270.0
  7
ROMAND
100
AcDbText
  0
ARC
  5
14E8
330
19
100
AcDbEntity
  8
PART
 62
     2
100
AcDbCircle
 10
-4.544191837434098
 20
6.3776820970853
 30
0.0
 40
0.072
100
AcDbArc
 50
180.0
 51
270.0
  0
TEXT
  5
14E9
330
19
100
AcDbEntity
  8
PART
 62
     2
100
AcDbText
 10
-3.392794556831866
 20
6.570415151441767
 30
0.0
 40
0.06
  1
LBF
 50
270.0
  7
ROMAND
100
AcDbText
  0
TEXT
  5
14EA
330
19
100
AcDbEntity
  8
PART
 62
     2
100
AcDbText
 10
-3.845707875396321
 20
6.599347328362713
 30
0.0
 40
0.085
  1
119
 50
270.0
  7
ROMAND
100
AcDbText
  0
TEXT
  5
14EB
330
19
100
AcDbEntity
  8
PART
 62
     2
100
AcDbText
 10
-3.714776698729366
 20
6.549347328362709
 30
0.0
 40
0.085
  1
99
 50
270.0
  7
ROMAND
100
AcDbText
  0
TEXT
  5
14EC
330
19
100
AcDbEntity
  8
PART
 62
     2
100
AcDbText
 10
-3.561918324770367
 20
6.549347328362709
 30
0.0
 40
0.085
  1
79
 50
270.0
  7
ROMAND
100
AcDbText
  0
TEXT
  5
14ED
330
19
100
AcDbEntity
  8
PART
 62
     2
100
AcDbText
 10
-4.149180695049906
 20
6.599347328362713
 30
0.0
 40
0.085
  1
159
 50
270.0
  7
ROMAND
100
AcDbText
  0
TEXT
  5
14EE
330
19
100
AcDbEntity
  8
PART
 62
     2
100
AcDbText
 10
-3.998566249355313
 20
6.599347328362713
 30
0.0
 40
0.085
  1
139
 50
270.0
  7
ROMAND
100
AcDbText
  0
TEXT
  5
14EF
330
19
100
AcDbEntity
  8
PART
 62
     2
100
AcDbText
 10
-4.294739653011021
 20
6.599347328362713
 30
0.0
 40
0.085
  1
179
 50
270.0
  7
ROMAND
100
AcDbText
  0
TEXT
  5
14F0
330
19
100
AcDbEntity
  8
PART
 62
     2
100
AcDbText
 10
-3.27908608512795
 20
6.612096064262853
 30
0.0
 40
0.06
  1
FORCE
 50
270.0
  7
ROMAND
100
AcDbText
  0
LINE
  5
14F1
330
19
100
AcDbEntity
  8
PART
 62
     2
100
AcDbLine
 10
-3.168191837434108
 20
6.377682097085301
 30
0.0
 11
-3.168191837434108
 21
6.643682097085292
 31
0.0
  0
LINE
  5
14F2
330
19
100
AcDbEntity
  8
PART
 62
     2
100
AcDbLine
 10
-3.304991837434101
 20
6.305682097085298
 30
0.0
 11
-3.304991837434101
 21
6.643682097085292
 31
0.0
  0
ARC
  5
14F3
330
19
100
AcDbEntity
  8
PART
 62
     2
100
AcDbCircle
 10
-3.24019183743411
 20
6.3776820970853
 30
0.0
 40
0.072
100
AcDbArc
 50
270.0
 51
359.9999999999994
  0
ARC
  5
14F4
330
19
100
AcDbEntity
  8
PART
 62
     2
100
AcDbCircle
 10
-3.240191837434096
 20
7.235738384770409
 30
0.0
 40
0.072
100
AcDbArc
 50
359.9999999999994
 51
90.0
  0
INSERT
  5
14F5
330
19
100
AcDbEntity
  8
0
100
AcDbBlockReference
 66
     1
  2
rvsn_sym
 10
-0.5603669365267941
 20
7.825031844264213
 30
0.0
  0
ATTRIB
  5
14F6
330
14F5
100
AcDbEntity
  8
PART
 62
     2
100
AcDbText
 10
-0.5792720874416557
 20
7.80390246992699
 30
0.0
 40
0.07
  1
1
 72
     1
 11
-0.5709387541083224
 21
7.80390246992699
 31
0.0
100
AcDbAttribute
  2
#
 70
     0
  0
SEQEND
  5
14F7
330
14F5
100
AcDbEntity
  8
0
  0
INSERT
  5
14F8
330
19
100
AcDbEntity
  8
0
100
AcDbBlockReference
 66
     1
  2
rvsn_sym
 10
-3.815022402631857
 20
7.936289028986348
 30
0.0
  0
ATTRIB
  5
14F9
330
14F8
100
AcDbEntity
  8
PART
 62
     2
100
AcDbText
 10
-3.833927553546719
 20
7.915159654649126
 30
0.0
 40
0.07
  1
1
 72
     1
 11
-3.825594220213385
 21
7.915159654649126
 31
0.0
100
AcDbAttribute
  2
#
 70
     0
  0
SEQEND
  5
14FA
330
14F8
100
AcDbEntity
  8
0
  0
INSERT
  5
14FB
330
19
100
AcDbEntity
  8
0
100
AcDbBlockReference
 66
     1
  2
rvsn_sym
 10
-7.241898618089809
 20
8.012834070031015
 30
0.0
  0
ATTRIB
  5
14FC
330
14FB
100
AcDbEntity
  8
PART
 62
     2
100
AcDbText
 10
-7.260803769004671
 20
7.991704695693792
 30
0.0
 40
0.07
  1
1
 72
     1
 11
-7.252470435671337
 21
7.991704695693792
 31
0.0
100
AcDbAttribute
  2
#
 70
     0
  0
SEQEND
  5
14FD
330
14FB
100
AcDbEntity
  8
0
  0
DIMENSION
  5
14FE
330
19
100
AcDbEntity
  8
DIM
100
AcDbDimension
  2
*D21
 10
0.5534409601547984
 20
4.578529651419746
 30
0.0
 11
-4.221543317724548
 21
4.578529651419746
 31
0.0
 70
    32
 71
     5
 42
9.549968555758693
  3
STANDARD
100
AcDbAlignedDimension
 13
-8.996527595603895
 23
5.697682097085288
 33
0.0
 14
0.5534409601547985
 24
6.163283657972825
 34
0.0
100
AcDbRotatedDimension
  0
DIMENSION
  5
14FF
330
19
100
AcDbEntity
  8
DIM
100
AcDbDimension
  2
*D22
 10
-9.544238096531445
 20
8.022682097085304
 30
0.0
 11
-9.544238096531447
 21
6.797279651419746
 31
0.0
 70
   160
 71
     5
 42
2.450000000000017
  3
STANDARD
100
AcDbAlignedDimension
 13
-8.871527595603886
 23
5.572682097085287
 33
0.0
 14
-8.871527595603886
 24
8.022682097085304
 34
0.0
 50
90.0
100
AcDbRotatedDimension
  0
DIMENSION
  5
1500
330
19
100
AcDbEntity
  8
DIM
100
AcDbDimension
  2
*D23
 10
-9.200488096531447
 20
7.712883275185458
 30
0.0
 11
-9.200488096531449
 21
6.797682097085298
 31
0.0
 70
    32
 71
     5
 42
1.830402356200315
  3
STANDARD
100
AcDbAlignedDimension
 13
-7.928006351659731
 23
5.882480918985142
 33
0.0
 14
-7.928006351659952
 24
7.712883275185458
 34
0.0
 50
90.0
100
AcDbRotatedDimension
  0
INSERT
  5
156A
330
19
100
AcDbEntity
  8
DIM
100
AcDbBlockReference
 66
     1
  2
rvsn_blk
 10
-0.3001180995775112
 20
2.800854886484688
 30
0.0
  0
ATTRIB
  5
156B
330
156A
100
AcDbEntity
  8
DIM
100
AcDbText
 10
-0.4444433778067511
 20
2.845128126772506
 30
1.0
 40
0.07
  1
1
  7
SIMPLEX
100
AcDbAttribute
  2
X
 70
     0
  0
ATTRIB
  5
156C
330
156A
100
AcDbEntity
  8
DIM
100
AcDbText
 10
-0.2626345123958669
 20
2.847811221926439
 30
1.0
 40
0.07
  1
9/23/04
  7
SIMPLEX
 72
     1
 11
-0.0309678457292002
 21
2.847811221926439
 31
1.0
100
AcDbAttribute
  2
DATE
 70
     0
  0
ATTRIB
  5
156D
330
156A
100
AcDbEntity
  8
DIM
100
AcDbText
 10
0.3697215345885667
 20
2.847811221926439
 30
1.0
 40
0.07
  1
CPD
  7
SIMPLEX
 72
     1
 11
0.4630548679219001
 21
2.847811221926439
 31
1.0
100
AcDbAttribute
  2
XXX
 70
     0
  0
SEQEND
  5
156E
330
156A
100
AcDbEntity
  8
DIM
  0
LINE
  5
158D
330
19
100
AcDbEntity
  8
TRIM
100
AcDbLine
 10
-4.455112736532774
 20
2.384246945887162
 30
0.0
 11
-4.455112736532775
 21
2.994246945887161
 31
0.0
  0
LINE
  5
158E
330
19
100
AcDbEntity
  8
TRIM
100
AcDbLine
 10
-4.485112736532772
 20
2.324246945887163
 30
0.0
 11
-4.485112736532772
 21
2.354246945887162
 31
0.0
  0
LINE
  5
158F
330
19
100
AcDbEntity
  8
TRIM
100
AcDbLine
 10
-4.485112736532772
 20
2.384246945887162
 30
0.0
 11
-4.485112736532772
 21
2.674246945887162
 31
0.0
  0
LINE
  5
1590
330
19
100
AcDbEntity
  8
TRIM
100
AcDbLine
 10
-4.485112736532772
 20
2.674246945887162
 30
0.0
 11
-9.70423773653275
 21
2.674246945887161
 31
0.0
  0
LINE
  5
1591
330
19
100
AcDbEntity
  8
TRIM
100
AcDbLine
 10
-4.485112736532772
 20
2.704246945887161
 30
0.0
 11
-9.70423773653275
 21
2.704246945887161
 31
0.0
  0
LINE
  5
1594
330
19
100
AcDbEntity
  8
TRIM
100
AcDbLine
 10
-4.455112736532774
 20
2.994246945887161
 30
0.0
 11
-9.704237736532752
 21
2.994246945887162
 31
0.0
  0
LINE
  5
1595
330
19
100
AcDbEntity
  8
TRIM
100
AcDbLine
 10
-4.485112736532772
 20
2.964246945887161
 30
0.0
 11
-9.70423773653275
 21
2.964246945887161
 31
0.0
  0
LINE
  5
1596
330
19
100
AcDbEntity
  8
TRIM
100
AcDbLine
 10
-4.485112736532772
 20
2.704246945887161
 30
0.0
 11
-4.485112736532771
 21
2.964246945887161
 31
0.0
  0
LINE
  5
1597
330
19
100
AcDbEntity
  8
TRIM
100
AcDbLine
 10
-4.485112736532773
 20
2.384246945887162
 30
0.0
 11
-4.485112736532772
 21
2.674246945887162
 31
0.0
  0
MTEXT
  5
1599
330
19
100
AcDbEntity
  8
TRIM
100
AcDbMText
 10
-9.620524535690414
 20
2.906749034629875
 30
0.0
 40
0.15
 41
4.962228212067522
 71
     1
 72
     5
  1
PART NUMBER: FS-3STACK-IF
 73
     1
 44
1.0
  0
MTEXT
  5
159A
330
19
100
AcDbEntity
  8
TRIM
100
AcDbMText
 10
-9.620524535690414
 20
2.63478649859828
 30
0.0
 40
0.15
 41
4.962228212067522
 71
     1
 72
     5
  1
NEW YORK STACK TIP-1.5"NPSH INLET
 73
     1
 44
1.0
  0
INSERT
  5
159C
330
19
100
AcDbEntity
  8
0
100
AcDbBlockReference
 66
     1
  2
rvsn_sym
 10
-5.624923439543355
 20
2.850857136875529
 30
0.0
  0
ATTRIB
  5
159D
330
159C
100
AcDbEntity
  8
PART
 62
     2
100
AcDbText
 10
-5.643828590458217
 20
2.829727762538306
 30
0.0
 40
0.07
  1
1
 72
     1
 11
-5.635495257124883
 21
2.829727762538306
 31
0.0
100
AcDbAttribute
  2
#
 70
     0
  0
SEQEND
  5
159E
330
159C
100
AcDbEntity
  8
0
  0
VIEWPORT
  5
1251
330
124A
100
AcDbEntity
 67
     1
  8
0
100
AcDbViewport
 10
5.302083773875799
 20
3.968749891115924
 30
0.0
 40
15.06639714351581
 41
8.992999745766947
 68
     2
 69
     1
 12
5.302083773875799
 22
3.968749891115924
 13
0.0
 23
0.0
 14
0.5
 24
0.5
 15
0.5
 25
0.5
 16
0.0
 26
0.0
 36
1.0
 17
0.0
 27
0.0
 37
0.0
 42
50.0
 43
0.0
 44
0.0
 45
8.992999745766947
 50
0.0
 51
0.0
 72
 10000
 90
    32800
  1

281
     0
 71
     1
 74
     0
110
0.0
120
0.0
130
0.0
111
1.0
121
0.0
131
0.0
112
0.0
122
1.0
132
0.0
 79
     0
146
0.0
170
     0
  0
VIEWPORT
  5
1253
330
124A
100
AcDbEntity
 67
     1
  8
DIM
100
AcDbViewport
 10
5.270890417120774
 20
3.968749894964274
 30
0.0
 40
10.62134211631591
 41
8.011095116856626
 68
     1
 69
     2
 12
-4.522144621481962
 22
5.349243745209192
 13
0.0
 23
0.0
 14
0.03125
 24
0.03125
 15
0.25
 25
0.25
 16
0.0
 26
0.0
 36
1.0
 17
0.0
 27
0.0
 37
0.0
 42
50.0
 43
0.0
 44
0.0
 45
8.011095108715315
 50
0.0
 51
0.0
 72
 10000
 90
    33536
  1

281
     0
 71
     1
 74
     0
110
0.0
120
0.0
130
0.0
111
1.0
121
0.0
131
0.0
112
0.0
122
1.0
132
0.0
 79
     0
146
0.0
170
     0
  0
ENDSEC
  0
SECTION
  2
OBJECTS
  0
DICTIONARY
  5
C
330
0
100
AcDbDictionary
281
     1
  3
ACAD_COLOR
350
12C4
  3
ACAD_GROUP
350
D
  3
ACAD_LAYOUT
350
1048
  3
ACAD_MATERIAL
350
12C3
  3
ACAD_MLINESTYLE
350
E
  3
ACAD_PLOTSETTINGS
350
1047
  3
ACAD_PLOTSTYLENAME
350
1045
  3
ACAD_TABLESTYLE
350
12C5
  3
AcDbVariableDictionary
350
1565
  3
ASE_INDEX_DICTIONARY
350
15CF
  0
DICTIONARY
  5
1592
330
19
100
AcDbDictionary
280
     1
281
     1
  3
ACAD_SORTENTS
360
1593
  0
DICTIONARY
  5
12C4
102
{ACAD_REACTORS
330
C
102
}
330
C
100
AcDbDictionary
281
     1
  0
DICTIONARY
  5
D
102
{ACAD_REACTORS
330
C
102
}
330
C
100
AcDbDictionary
281
     1
  0
DICTIONARY
  5
1048
102
{ACAD_REACTORS
330
C
102
}
330
C
100
AcDbDictionary
281
     1
  3
Model
350
1049
  3
Sheet 1of2
350
104A
  3
Sheet 2of2
350
124D
  0
DICTIONARY
  5
12C3
102
{ACAD_REACTORS
330
C
102
}
330
C
100
AcDbDictionary
281
     1
  0
DICTIONARY
  5
E
102
{ACAD_REACTORS
330
C
102
}
330
C
100
AcDbDictionary
281
     1
  3
STANDARD
350
1C
  0
DICTIONARY
  5
1047
102
{ACAD_REACTORS
330
C
102
}
330
C
100
AcDbDictionary
281
     1
  3
Vellum
350
1247
  0
ACDBDICTIONARYWDFLT
  5
1045
102
{ACAD_REACTORS
330
C
102
}
330
C
100
AcDbDictionary
281
     1
  3
Normal
350
1046
100
AcDbDictionaryWithDefault
340
1046
  0
DICTIONARY
  5
12C5
102
{ACAD_REACTORS
330
C
102
}
330
C
100
AcDbDictionary
281
     1
  3
Standard
350
12C6
  0
DICTIONARY
  5
1565
102
{ACAD_REACTORS
330
C
102
}
330
C
100
AcDbDictionary
281
     1
  3
CTABLESTYLE
350
1566
  0
DICTIONARY
  5
15CF
102
{ACAD_REACTORS
330
C
102
}
330
C
100
AcDbDictionary
281
     1
  3
ASEBlockHierarchyIndexRecord
350
15D1
1001
DCO15
1040
1511684528.227
  0
SORTENTSTABLE
  5
1593
102
{ACAD_REACTORS
330
1592
102
}
330
1592
100
AcDbSortentsTable
330
19
331
14B6
  5
14B6
331
1477
  5
1477
331
14ED
  5
14ED
331
14BE
  5
14BE
331
147F
  5
147F
331
14F5
  5
14F5
331
14C6
  5
14C6
331
1487
  5
1487
331
148F
  5
148F
331
14CE
  5
14CE
331
1438
  5
1438
331
13F9
  5
13F9
331
1440
  5
1440
331
1401
  5
1401
331
1448
  5
1448
331
1409
  5
1409
331
1411
  5
1411
331
1450
  5
1450
331
14D6
  5
14D6
331
1497
  5
1497
331
14DE
  5
14DE
331
149F
  5
149F
331
14E6
  5
14E6
331
14A7
  5
14A7
331
14AF
  5
14AF
331
1458
  5
1458
331
1419
  5
1419
331
1460
  5
1460
331
13EA
  5
13EA
331
1421
  5
1421
331
1468
  5
1468
331
13F2
  5
13F2
331
1429
  5
1429
331
1431
  5
1431
331
1470
  5
1470
331
14B7
  5
14B7
331
14EE
  5
14EE
331
1478
  5
1478
331
14BF
  5
14BF
331
1480
  5
1480
331
14C7
  5
14C7
331
1488
  5
1488
331
14FE
  5
14FE
331
1594
  5
1597
331
14CF
  5
14CF
331
1439
  5
1439
331
13FA
  5
13FA
331
1441
  5
1441
331
1402
  5
1402
331
1449
  5
1449
331
140A
  5
140A
331
1451
  5
1451
331
1412
  5
1412
331
1490
  5
1490
331
14D7
  5
14D7
331
1498
  5
1498
331
14DF
  5
14DF
331
14A0
  5
14A0
331
14A8
  5
14A8
331
14E7
  5
14E7
331
1459
  5
1459
331
141A
  5
141A
331
1461
  5
1461
331
13EB
  5
13EB
331
1422
  5
1422
331
1234
  5
1234
331
1469
  5
1469
331
13F3
  5
13F3
331
142A
  5
142A
331
1432
  5
1432
331
14B0
  5
14B0
331
1471
  5
1471
331
14B8
  5
14B8
331
1479
  5
1479
331
14EF
  5
14EF
331
14C0
  5
14C0
331
158D
  5
158D
331
1481
  5
1481
331
14C8
  5
14C8
331
14FF
  5
14FF
331
1489
  5
1489
331
143A
  5
143A
331
13FB
  5
13FB
331
1442
  5
1442
331
1403
  5
1403
331
144A
  5
144A
331
140B
  5
140B
331
1452
  5
1452
331
1413
  5
1413
331
14D0
  5
14D0
331
1491
  5
1491
331
14D8
  5
14D8
331
1499
  5
1499
331
14E0
  5
14E0
331
14A1
  5
14A1
331
14A9
  5
14A9
331
145A
  5
145A
331
141B
  5
141B
331
1462
  5
1462
331
13EC
  5
13EC
331
1423
  5
1423
331
146A
  5
146A
331
13F4
  5
13F4
331
142B
  5
142B
331
1433
  5
1433
331
14B1
  5
14B1
331
14E8
  5
14E8
331
1472
  5
1472
331
14B9
  5
14B9
331
147A
  5
147A
331
14F0
  5
14F0
331
14C1
  5
14C1
331
1482
  5
1482
331
14F8
  5
14F8
331
158E
  5
158E
331
14C9
  5
14C9
331
148A
  5
148A
331
1500
  5
1500
331
1596
  5
1590
331
143B
  5
143B
331
13FC
  5
13FC
331
1443
  5
1443
331
1404
  5
1404
331
144B
  5
144B
331
140C
  5
140C
331
1453
  5
1453
331
1414
  5
1414
331
14D1
  5
14D1
331
1492
  5
1492
331
14D9
  5
14D9
331
149A
  5
149A
331
14E1
  5
14E1
331
14A2
  5
14A2
331
14AA
  5
14AA
331
145B
  5
145B
331
141C
  5
141C
331
1463
  5
1463
331
13ED
  5
13ED
331
1424
  5
1424
331
146B
  5
146B
331
13F5
  5
13F5
331
142C
  5
142C
331
1434
  5
1434
331
14B2
  5
14B2
331
1473
  5
1473
331
14E9
  5
14E9
331
14BA
  5
14BA
331
147B
  5
147B
331
14F1
  5
14F1
331
14C2
  5
14C2
331
158F
  5
1591
331
1483
  5
1483
331
14CA
  5
14CA
331
1597
  5
158F
331
148B
  5
148B
331
143C
  5
143C
331
13FD
  5
13FD
331
1444
  5
1444
331
1405
  5
1405
331
144C
  5
144C
331
140D
  5
140D
331
1454
  5
1454
331
1415
  5
1415
331
14D2
  5
14D2
331
1493
  5
1493
331
14DA
  5
14DA
331
149B
  5
149B
331
14E2
  5
14E2
331
14A3
  5
14A3
331
14AB
  5
14AB
331
145C
  5
145C
331
141D
  5
141D
331
1464
  5
1464
331
13EE
  5
13EE
331
1425
  5
1425
331
146C
  5
146C
331
13F6
  5
13F6
331
142D
  5
142D
331
1435
  5
1435
331
14B3
  5
14B3
331
14EA
  5
14EA
331
1474
  5
1474
331
14BB
  5
14BB
331
147C
  5
147C
331
14F2
  5
14F2
331
14C3
  5
14C3
331
1484
  5
1484
331
1590
  5
1594
331
14CB
  5
14CB
331
148C
  5
148C
331
143D
  5
143D
331
13FE
  5
13FE
331
1445
  5
1445
331
1406
  5
1406
331
144D
  5
144D
331
140E
  5
140E
331
1455
  5
1455
331
1416
  5
1416
331
14D3
  5
14D3
331
1494
  5
1494
331
14DB
  5
14DB
331
149C
  5
149C
331
14E3
  5
14E3
331
14A4
  5
14A4
331
14AC
  5
14AC
331
145D
  5
145D
331
13E7
  5
13E7
331
141E
  5
141E
331
1465
  5
1465
331
13EF
  5
13EF
331
1426
  5
1426
331
146D
  5
146D
331
13F7
  5
13F7
331
142E
  5
142E
331
1436
  5
1436
331
14B4
  5
14B4
331
1475
  5
1475
331
14EB
  5
14EB
331
14BC
  5
14BC
331
147D
  5
147D
331
14F3
  5
14F3
331
14C4
  5
14C4
331
14FB
  5
14FB
331
1485
  5
1485
331
1591
  5
1596
331
14CC
  5
14CC
331
148D
  5
148D
331
143E
  5
143E
331
13FF
  5
13FF
331
1446
  5
1446
331
1407
  5
1407
331
144E
  5
144E
331
140F
  5
140F
331
1456
  5
1456
331
1417
  5
1417
331
156A
  5
156A
331
14D4
  5
14D4
331
1495
  5
1495
331
14DC
  5
14DC
331
149D
  5
149D
331
14E4
  5
14E4
331
14A5
  5
14A5
331
14AD
  5
14AD
331
145E
  5
145E
331
13E8
  5
13E8
331
141F
  5
141F
331
1466
  5
1466
331
13F0
  5
13F0
331
1427
  5
1427
331
146E
  5
146E
331
142F
  5
142F
331
1437
  5
1437
331
14B5
  5
14B5
331
14EC
  5
14EC
331
1476
  5
1476
331
14BD
  5
14BD
331
147E
  5
147E
331
14F4
  5
14F4
331
14C5
  5
14C5
331
1486
  5
1486
331
14CD
  5
14CD
331
148E
  5
148E
331
13F8
  5
13F8
331
143F
  5
143F
331
1400
  5
1400
331
1447
  5
1447
331
1408
  5
1408
331
144F
  5
144F
331
1410
  5
1410
331
1457
  5
1457
331
14D5
  5
14D5
331
1496
  5
1496
331
14DD
  5
14DD
331
149E
  5
149E
331
14E5
  5
14E5
331
14A6
  5
14A6
331
14AE
  5
14AE
331
1418
  5
1418
331
145F
  5
145F
331
1420
  5
1420
331
1467
  5
1467
331
13F1
  5
13F1
331
1428
  5
1428
331
1430
  5
1430
331
146F
  5
146F
  0
LAYOUT
  5
1049
102
{ACAD_REACTORS
330
1048
102
}
330
1048
100
AcDbPlotSettings
  1

  2
VELLUM.pc3
  4
Letter
  6
1
 40
5.873749732971191
 41
5.027085304260253
 42
5.873748779296875
 43
5.027084350585937
 44
279.3999938964844
 45
215.8999938964844
 46
-0.0000000000000226
 47
1.752830133483692
 48
-9.734237736532751
 49
1.396539481333159
140
0.7157622634672478
141
9.296539481333162
142
1.0
143
0.9916963397594109
 70
 11956
 72
     0
 73
     0
 74
     4
  7
monochrome.ctb
 75
     0
147
1.008373188351792
 76
     0
 77
     2
 78
   300
148
247.2496385079319
149
-35.47210282586226
100
AcDbLayout
  1
Model
 70
     1
 71
     0
 10
0.0
 20
0.0
 11
12.0
 21
9.0
 12
0.0
 22
0.0
 32
0.0
 14
0.0
 24
0.0
 34
0.0
 15
0.0
 25
0.0
 35
0.0
146
0.0
 13
0.0
 23
0.0
 33
0.0
 16
1.0
 26
0.0
 36
0.0
 17
0.0
 27
1.0
 37
0.0
 76
     0
330
19
1001
ACAD_PSEXT
1000
VELLUM.pc3
1000
Xerox Document Centre 230
1000
Eng Department Center 
1000

1070
     0
  0
LAYOUT
  5
104A
102
{ACAD_REACTORS
330
1048
102
}
330
1048
100
AcDbPlotSettings
  1
Vellum
  2
\\PRINTER\ENG HP 5 LASERJET PRINTER
  4
Letter Small
  6

 40
7.143749713897705
 41
6.720414161682128
 42
7.14373779296875
 43
5.027069091796875
 44
215.8999938964844
 45
279.3999938964844
 46
0.0
 47
0.0
 48
0.0
 49
0.0
140
0.0
141
0.0
142
1.0
143
1.0
 70
   688
 72
     0
 73
     1
 74
     5
  7
monochrome.ctb
 75
    16
147
1.0
 76
     0
 77
     2
 78
   300
148
0.0
149
0.0
100
AcDbLayout
  1
Sheet 1of2
 70
     1
 71
     1
 10
-0.1979161059762549
 20
-0.2812499887361301
 11
10.80208365372785
 21
8.218749770967978
 12
0.0
 22
0.0
 32
0.0
 14
-0.0406493861701449
 24
-0.0524596959031882
 34
-0.0015258207003583
 15
10.56665041689604
 25
7.990219135990155
 35
0.0000000349246037
146
0.0
 13
0.0
 23
0.0
 33
0.0
 16
1.0
 26
0.0
 36
0.0
 17
0.0
 27
1.0
 37
0.0
 76
     0
330
16
331
1249
  0
LAYOUT
  5
124D
102
{ACAD_REACTORS
330
1048
102
}
330
1048
100
AcDbPlotSettings
  1
Vellum
  2
\\PRINTER\ENG HP 5 LASERJET PRINTER
  4
Letter Small
  6

 40
7.143749713897705
 41
6.720414161682128
 42
7.14373779296875
 43
5.027069091796875
 44
215.8999938964844
 45
279.3999938964844
 46
0.0
 47
0.0
 48
0.0
 49
0.0
140
0.0
141
0.0
142
1.0
143
1.0
 70
   688
 72
     0
 73
     1
 74
     5
  7
monochrome.ctb
 75
    16
147
1.0
 76
     0
 77
     2
 78
   300
148
0.0
149
0.0
100
AcDbLayout
  1
Sheet 2of2
 70
     1
 71
     2
 10
-0.1979161059762549
 20
-0.2812499887361301
 11
10.80208365372785
 21
8.218749770967978
 12
0.0
 22
0.0
 32
0.0
 14
-0.0406493861701449
 24
-0.0373534947137273
 34
-0.0015258207003583
 15
10.58221438175791
 25
7.974426289292082
 35
0.0000000349246037
146
0.0
 13
0.0
 23
0.0
 33
0.0
 16
1.0
 26
0.0
 36
0.0
 17
0.0
 27
1.0
 37
0.0
 76
     0
330
124A
331
1253
  0
MLINESTYLE
  5
1C
102
{ACAD_REACTORS
330
E
102
}
330
E
100
AcDbMlineStyle
  2
STANDARD
 70
     0
  3

 62
     0
 51
90.0
 52
90.0
 71
     2
 49
0.5
 62
   256
  6
BYLAYER
 49
-0.5
 62
   256
  6
BYLAYER
  0
PLOTSETTINGS
  5
1247
102
{ACAD_REACTORS
330
1047
102
}
330
1047
100
AcDbPlotSettings
  1
Vellum
  2
\\PRINTER\ENG HP 5 LASERJET PRINTER
  4
Letter Small
  6

 40
7.143749713897705
 41
6.720414161682128
 42
7.14373779296875
 43
5.027069091796875
 44
215.8999938964844
 45
279.3999938964844
 46
0.0
 47
0.0
 48
0.0
 49
0.0
140
0.0
141
0.0
142
1.0
143
1.0
 70
   688
 72
     0
 73
     1
 74
     5
  7
EngrLaserJet.ctb
 75
    16
147
1.0
 76
     0
 77
     2
 78
   300
148
0.0
149
0.0
  0
ACDBPLACEHOLDER
  5
1046
102
{ACAD_REACTORS
330
1045
102
}
330
1045
  0
TABLESTYLE
  5
12C6
102
{ACAD_REACTORS
330
12C5
102
}
330
12C5
100
AcDbTableStyle
  3
Standard
 70
     0
 71
     0
 40
0.06
 41
0.06
280
     0
281
     0
  7
STANDARD
140
0.18
170
     2
 62
     0
 63
     7
283
     0
274
    -2
284
     1
 64
     0
275
    -2
285
     1
 65
     0
276
    -2
286
     1
 66
     0
277
    -2
287
     1
 67
     0
278
    -2
288
     1
 68
     0
279
    -2
289
     1
 69
     0
  7
STANDARD
140
0.25
170
     5
 62
     0
 63
     7
283
     0
274
    -2
284
     1
 64
     0
275
    -2
285
     1
 65
     0
276
    -2
286
     1
 66
     0
277
    -2
287
     1
 67
     0
278
    -2
288
     1
 68
     0
279
    -2
289
     1
 69
     0
  7
STANDARD
140
0.18
170
     5
 62
     0
 63
     7
283
     0
274
    -2
284
     1
 64
     0
275
    -2
285
     1
 65
     0
276
    -2
286
     1
 66
     0
277
    -2
287
     1
 67
     0
278
    -2
288
     1
 68
     0
279
    -2
289
     1
 69
     0
  0
DICTIONARYVAR
  5
1566
102
{ACAD_REACTORS
330
1565
102
}
330
1565
100
DictionaryVariables
280
     0
  1
STANDARD
  0
XRECORD
  5
15D1
102
{ACAD_REACTORS
330
15CF
102
}
330
15CF
100
AcDbXrecord
280
     1
330
14F5
330
14F8
330
14FB
330
156A
330
159C
330
1234
330
1452
330
110A
330
11AF
  0
ENDSEC
  0
EOF
